<?xml version="1.0" standalone="no"?>
<!DOCTYPE svg PUBLIC "-//W3C//DTD SVG 1.1//EN" "http://www.w3.org/Graphics/SVG/1.1/DTD/svg11.dtd" >
<svg>
<metadata>
Created by FontForge 20120731 at Wed Jun 19 02:08:07 2019
 By www-data
Copyright (c) 2018 by Vladimir Nikolic. All rights reserved.
</metadata>
<defs>
<font id="NightinTokyo-Bold" horiz-adv-x="605" >
  <font-face 
    font-family="Night in Tokyo"
    font-weight="700"
    font-stretch="normal"
    units-per-em="1000"
    panose-1="0 0 0 0 0 0 0 0 0 0"
    ascent="750"
    descent="-250"
    x-height="659"
    cap-height="651"
    bbox="5 -163 784 699"
    underline-thickness="50"
    underline-position="-50"
    unicode-range="U+000D-007A"
  />
<missing-glyph horiz-adv-x="401" 
 />
    <glyph glyph-name=".notdef" horiz-adv-x="401" 
 />
    <glyph glyph-name="NULL" horiz-adv-x="0" 
 />
    <glyph glyph-name="NULL" horiz-adv-x="0" 
 />
    <glyph glyph-name="nonmarkingreturn" unicode="&#xd;" horiz-adv-x="401" 
 />
    <glyph glyph-name="space" unicode=" " horiz-adv-x="401" 
 />
    <glyph glyph-name="E" unicode="E" horiz-adv-x="523" 
d="M82 414q5 1 8 0.5t10 1.5q3 42 9.5 83t15.5 83q-22 2 -40.5 2.5t-30.5 -1.5l-6 30q21 6 40.5 10t39.5 8l11 2q2 5 3 8.5t2 7.5l7 26l27 -4v-32q48 5 95.5 7t85.5 2q27 0 54 -1t38 -2q1 -19 2.5 -40.5t2 -41t1 -34.5t0.5 -21q-33 19 -61.5 30t-54.5 17.5t-50.5 10
t-49.5 6.5q-19 2 -31.5 3.5t-32.5 3.5v-21v-67t1 -69q14 1 27.5 1h27.5q106 0 213 -19l-2 -30q-86 -8 -148.5 -14.5t-113.5 -20.5q3 -40 9 -86t20 -106q20 1 40 1h40q63 0 121 -4t99 -10l-49 -110q-46 11 -81.5 19t-63.5 13.5t-49.5 9.5t-38.5 7l9 -32q-23 0 -55 -4t-72 -11
l-9 60q-21 2 -43.5 4t-43.5 4l-1 29q21 5 40.5 9t42.5 6q-3 27 -4.5 60t-1.5 65v23.5t1 24.5q-9 -4 -19 -8t-21 -9q-5 82 -22 115z" />
    <glyph glyph-name="F" unicode="F" horiz-adv-x="485" 
d="M68 413q8 1 11 0.5t12 1.5q4 41 10.5 79.5t14.5 79.5q-6 0 -13.5 0.5t-13.5 0.5q-38 0 -60 -3l-6 29q26 9 52.5 15t52.5 11q0 1 0.5 1.5t0.5 1.5l14 48l27 -4q0 -14 0.5 -19.5t-0.5 -19.5q44 6 88.5 10t84 6.5t70 3t46.5 0.5q5 -45 8 -79.5t3 -57.5q-36 17 -66.5 27
t-58.5 15t-55 7t-55 3q-14 2 -29.5 2t-30.5 1h-6v-18v-65.5t1 -68.5q7 0 14 0.5t15 0.5q53 0 98.5 -5.5t81.5 -15.5l-3 -29q-69 -4 -117.5 -9t-85.5 -15q4 -57 16 -132.5t41 -182.5q-24 0 -56 -3.5t-70 -11.5q-9 52 -15 114t-6 127q0 19 -1 28.5t1 29.5q-10 -5 -19.5 -10
t-23.5 -12q-35 68 -15 114z" />
    <glyph glyph-name="G" unicode="G" 
d="M63 389q0 50 10 100q-7 -4 -13.5 -9.5t-16.5 -12.5q-5 82 16 132q14 8 28.5 13.5t28.5 10.5l-2 -1q-1 -1 1 0t4 1l9 18q5 10 11 20.5t13 21.5l24 -11l-8 -32q48 14 91 20t81 9q20 2 41.5 3.5t42.5 1.5q59 0 143 -12v-30q-59 -6 -103.5 -12.5t-80.5 -13.5t-66 -15.5
t-58 -17.5q-27 -10 -54.5 -20t-54.5 -22v-43q0 -20 0.5 -45.5t4.5 -53.5q48 8 84.5 9.5t67.5 1.5h8q40 -1 82 -3t96 -13q26 37 60 68l20 -16q-8 -20 -12.5 -32.5t-11.5 -32.5q11 -2 22.5 -5t17.5 -5q-5 -10 -11.5 -24t-13 -29.5t-13 -30t-10.5 -24.5l-26 9l-3 -13
q-5 -15 -9.5 -39t-8.5 -48l-2 -20l43 -10l-46 -99l-7 2q0 -2 0.5 -5.5t1.5 -8.5l-101 -5q-2 17 -1.5 29.5t1.5 22.5q-24 5 -48 8t-47 5q-9 0 -17.5 0.5t-17.5 0.5q0 -3 4 -5l-101 -62q-14 18 -19.5 28.5t-11.5 23.5q-12 -3 -27 -6.5t-29 -7.5l-12 25q17 11 29 18t23 13
q-12 38 -21.5 85t-16.5 94v-1q0 5 -1 10q-2 10 -2 17l-1 13q-5 0 -6.5 -0.5t-5.5 -0.5q-7 -1 -17 -1h-24l-3 29q8 2 16.5 5.5t15.5 5.5l10.5 3.5t9.5 3.5v17zM421 235v-3v3zM260 326q-14 1 -24.5 1.5l-21 1t-22 0.5h-27.5q8 -37 20 -82.5t35 -99.5q23 4 44.5 5.5t43.5 1.5
q9 0 18.5 0.5t18.5 0.5h27.5t26.5 -2l3 12q4 17 8.5 35.5t11.5 37.5l-1 -3q2 4 2 5l8 26t9 24q-55 18 -97.5 25t-82.5 11z" />
    <glyph glyph-name="H" unicode="H" horiz-adv-x="597" 
d="M69 295q-11 0 -22 -1t-25 -3l-7 28l40 13q5 2 6.5 2t8.5 2q2 63 14.5 141t50.5 186l27 -5q-1 -19 -1.5 -44.5t-0.5 -54.5q0 -45 0.5 -91.5t5.5 -110.5q50 7 101 10.5t102 3.5q12 0 17.5 0.5t17.5 -0.5q5 72 19 144.5t37 136.5l27 -6q-6 -62 -6 -133q0 -39 1.5 -72
t4.5 -75q23 -2 46.5 -4.5t50.5 -7.5l-37 -110q-14 5 -25 8.5t-27 7.5q6 -51 15 -103t20 -106l-122 -20q-5 52 -7.5 101.5t-2.5 97.5q0 17 -0.5 26.5t0.5 26.5q-45 9 -87.5 12t-74.5 5q-8 0 -20.5 0.5t-20.5 0.5q-10 0 -12 -0.5t-12 -0.5q5 -54 13 -112t19 -127l-114 -47
q-11 62 -15 124t-5 137v20z" />
    <glyph glyph-name="I" unicode="I" horiz-adv-x="220" 
d="M59 32q-5 55 -8 114.5t-3 120.5q0 94 11 190.5t43 193.5l27 -6q-1 -16 -1 -33.5v-36.5q0 -97 12 -230.5t45 -294.5z" />
    <glyph glyph-name="J" unicode="J" horiz-adv-x="371" 
d="M120 94q-3 -3 1 -1q-1 0 0 1h-1zM90 66l29 29q-29 17 -57.5 37.5t-51.5 41.5l70 105q28 -42 53 -76t47 -61q6 5 11.5 11t13.5 11l12 11q-1 25 -1 49.5v47.5q0 166 10 264t27 141l25 -6q1 -49 7.5 -112t15.5 -128.5t19 -128.5t19 -112q-34 -26 -60.5 -52t-47.5 -52l19 -19
q2 -2 6.5 -7t6.5 -6l-15 -23q-11 4 -23 9.5t-22 10.5l-28 -43z" />
    <glyph glyph-name="K" unicode="K" horiz-adv-x="512" 
d="M233 310q-20 -28 -41 -53t-44 -49q6 -31 14.5 -68t18.5 -76q-11 -8 -44 -18.5t-87 -23.5l-4 94l-16 -12l-19 23q13 15 24 30l9 9q-1 24 -1.5 48t-0.5 50q0 85 8.5 182.5t33.5 217.5l28 -3q0 -38 0.5 -67.5t1.5 -55t2 -49.5t3 -52q1 -16 1.5 -29.5t2 -29.5t4.5 -36.5
t8 -49.5q14 21 26.5 42.5t25.5 44.5q-8 11 -15.5 20.5t-14.5 18.5l-9 14l17 16q13 -8 22.5 -13.5t22.5 -15.5q29 52 49 102.5t37 101.5q14 3 33.5 7.5t40 9.5t40 9.5t33.5 8.5q-25 -54 -47.5 -97.5t-43.5 -79t-40.5 -64.5t-37.5 -54q68 -63 120 -137.5t95 -161.5
q-12 -6 -29 -13.5t-34.5 -15.5t-34.5 -15.5t-30 -12.5q-25 98 -59 172t-69 131z" />
    <glyph glyph-name="L" unicode="L" horiz-adv-x="436" 
d="M23 89v31q20 2 33 3t33 4q-19 81 -29.5 173.5t-10.5 192.5q0 40 1.5 81t6.5 83l134 15q-11 -48 -20.5 -103.5t-17 -115.5t-11.5 -122t-4 -123q0 -23 -0.5 -37t1.5 -36q72 12 143.5 32t148.5 48l-59 -144q-14 -1 -33.5 -1h-33.5q-39 0 -79 1.5t-83 5.5q1 -13 2 -25.5
t3 -23.5l-27 -7q-6 17 -10 29t-9 29z" />
    <glyph glyph-name="M" unicode="M" horiz-adv-x="679" 
d="M248 317l26 33q-24 47 -49.5 88.5t-51.5 74.5q-9 -68 -13 -137.5t-4 -137.5q0 -57 3.5 -116.5t10.5 -120.5l-132 64q-2 51 3 113.5t15.5 129.5t27.5 134t39 126q-19 20 -36 33.5t-37 24.5l14 27q23 -12 38 -21t38 -24q8 20 17 37.5t18 35.5l26 -10q-5 -23 -10 -44.5
t-8 -46.5q45 -33 85 -68.5t78 -77.5q38 42 75.5 78t70.5 65q-5 20 -10 40.5t-12 42.5l26 12q11 -20 17.5 -33t15.5 -33q12 9 24 16.5t27 16.5q19 -34 36 -59.5t30 -42.5l-29 -15l-44 -22q39 -112 55 -222.5t15 -216.5q-63 -35 -146 -41q17 83 23.5 145.5t6.5 113.5
q0 22 -1 42.5t-2 40.5q-1 16 -2 28.5t-2 24t-2.5 24t-4.5 29.5q-33 -19 -64 -39.5t-62 -43.5q14 -17 28.5 -35.5t25.5 -37.5l-109 -89q-11 26 -20 48t-18 42q-11 -11 -22 -21t-22 -19l-21 21z" />
    <glyph glyph-name="N" unicode="N" 
d="M87 11q-15 61 -22 117.5t-7 111.5q0 75 11 151.5t34 160.5q-20 21 -39.5 39t-38.5 35l16 25q19 -11 38 -23t40 -26q5 18 11 34.5t13 34.5l26 -8q-4 -25 -7 -47t-6 -42q79 -59 152 -128t140 -147q-1 71 -8 143.5t-23 145.5l141 55q-2 -100 -10 -208.5t-33 -217.5
q17 -23 37 -53t35 -54l-109 -66l-9 19l-13 -34l-26 7q2 17 5 34.5t5 43.5q-66 113 -140 210t-151 179q-2 -18 -2 -34.5v-32.5q0 -30 2 -58t5 -57q7 -68 16.5 -132t27.5 -130z" />
    <glyph glyph-name="O" unicode="O" horiz-adv-x="608" 
d="M473 647l2 -4q20 -1 40.5 -3t46.5 -5v-29q-20 -3 -33 -5t-33 -7q22 -59 31 -111t9 -105q0 -14 -0.5 -30t-2.5 -30q-2 -35 -10 -76.5t-17 -76.5q30 -3 64 -9l-47 -123l-64 22q-8 -11 -14 -19.5t-13 -15.5l-22 14q4 11 6.5 17.5t4.5 15.5q-46 11 -81 14t-68 3h-18t-17 -1
l11 -17l-135 -41q-5 10 -8.5 20t-8.5 21l-69 -19l-12 27l28 16q8 6 19 11.5t19 10.5q-16 50 -21.5 93t-5.5 85v19t1 20q2 26 5.5 56t11.5 60l-14 -7q-25 49 -30 98q35 21 60.5 35.5t42.5 22.5l10 18l19 34l26 -14q-3 -7 -4 -8.5t-1.5 -2t-1 -1.5t-1.5 -7q11 4 22.5 6t26.5 4
l20 2q22 4 50 8.5t63 6.5q68 39 95 48zM434 335q-8 57 -22 113t-41 115q-57 -16 -111 -36.5t-113 -46.5q-1 -10 -1.5 -20t-0.5 -20q0 -8 0.5 -16t0.5 -16q1 -50 10 -111t45 -141q39 11 69.5 13.5t59.5 3.5q9 1 21.5 1h22.5h33t33 -2q2 14 2 28v28q0 27 -2 53.5t-6 53.5z" />
    <glyph glyph-name="P" unicode="P" horiz-adv-x="557" 
d="M377 272q-42 -7 -89 -11.5t-97 -4.5q2 -22 3 -45.5t1 -43.5q0 -61 -12 -134l-129 -2q14 68 22 123.5t13 106.5l-77 11q4 26 12 55.5t23 67.5l48 -17v34v45.5t-2 45.5q-20 -5 -36.5 -8.5t-32.5 -7.5l-9 27l28 17v-1q11 7 22 13.5t24 12.5q-2 27 -4.5 52.5t-6.5 51.5l27 7
q6 -17 12.5 -37t12.5 -43l5 -12q60 22 115.5 37.5t98.5 24.5l-8 22l22 15q8 -9 14 -16t13 -15q9 1 18 1.5t20 0.5q39 -50 58 -127l-26 5q13 -28 19 -51.5t11 -43.5q5 -25 8 -47t4 -46l33 2l5 -30l-38 -12q0 -12 -1 -27t-3 -29l-121 10v23zM171 357l8 -3l2 -11zM152 514
q19 -85 27 -160q45 -11 95 -16.5t113 -6.5q5 33 6.5 57t1.5 43q0 29 -3 49.5t-7 37.5l2 -4q-5 11 -6 17l-1 2h-22q-49 0 -102 -5.5t-104 -13.5z" />
    <glyph glyph-name="Q" unicode="Q" horiz-adv-x="584" 
d="M153 659l26 -13q-3 -7 -4 -8.5t-1.5 -2.5t-1 -2.5l-2.5 -7.5q10 3 21.5 5t26.5 4q22 5 56.5 9.5t77.5 8.5q35 19 57.5 30.5t36.5 16.5l19 -40l1 -5q19 0 40 -1.5t47 -5.5l1 -28q-20 -4 -33.5 -6.5t-33.5 -7.5q22 -58 31.5 -109.5t9.5 -105.5q0 -14 -0.5 -29.5t-2.5 -29.5
q-3 -38 -10.5 -77.5t-17.5 -75.5q17 -2 34 -5t30 -5l-47 -121l-63 20q-12 -19 -28 -34l-22 14q4 9 6 14t5 16q-16 5 -28 8t-29 5q0 -2 0.5 -3.5t0.5 -3.5q7 -23 14 -76q-32 11 -63.5 18.5t-62.5 14.5l12 56h-28h-1l13 -19l-134 -39q-10 19 -12.5 26.5t-4.5 12.5q-2 4 -0.5 1
t-0.5 -1q-8 -2 -16 -3.5t-18 -4.5l-27 -9l-11 28q14 8 21.5 12.5t13.5 9.5h-1q6 5 11.5 8t10.5 6q-17 51 -22 96t-5 88q0 8 0.5 15.5t0.5 15.5q2 29 5.5 58t11.5 58l-13 -7q-14 26 -21 50.5t-10 50.5q35 20 60.5 34t42.5 22zM373 579l-12 -3l-5 10zM273 176q0 2 0.5 3.5
t0.5 3.5q8 0 12 1l-14 -16q0 2 0.5 4t0.5 4zM425 347q-8 57 -21.5 112.5t-42.5 116.5q-54 -17 -109.5 -37.5t-113.5 -46.5q-1 -11 -1 -20.5v-20.5v-31q1 -51 10.5 -112t45.5 -140q24 6 43.5 9.5t37.5 5.5q2 8 5.5 20.5t6.5 25.5t6.5 24.5t5.5 19.5q9 -20 13.5 -31t6.5 -17
t2.5 -9t1.5 -5q3 -6 5 -11.5t5 -13.5h21h39t39 -2q2 14 2 28v27q0 27 -2 54t-6 54z" />
    <glyph glyph-name="R" unicode="R" horiz-adv-x="611" 
d="M396 250q2 6 1 10t0 11l-18 -3zM16 510q26 14 48.5 25t42.5 20l-10 104l26 8q11 -26 17.5 -48t13.5 -45q62 24 115.5 39t98.5 23q-2 5 -4.5 9t-4.5 12l23 16l22 -27l3 -4q10 1 19 1.5t20 0.5q40 -51 58 -121q-8 2 -12.5 1t-13.5 0q12 -27 19 -52t12 -45q5 -24 7.5 -46.5
t3.5 -46.5l35 2l4 -30l-16 -5l-23 -5q0 -14 -1 -27.5t-3 -30.5l-118 10q63 -64 114 -100.5t77 -47.5q-59 -59 -131 -77q-51 51 -91.5 108.5t-74.5 126.5q-41 -3 -83 -3q2 -23 3 -47t1 -44q0 -31 -3 -63t-8 -69l-129 -2q14 68 22 124t13 107h-5q-15 2 -31.5 4t-41.5 7
q3 25 12.5 54.5t23.5 67.5l48 -17v28q0 29 -0.5 48.5t-2.5 48.5q-24 -5 -46 -10t-39 -10zM400 532h-23q-49 0 -102.5 -5.5t-104.5 -13.5q11 -44 17.5 -84t11.5 -77q23 -7 56 -11l-8 24q-1 2 -4 8.5t-6 14.5l24 15l30 -37l28 -32q21 -2 42 -3t45 -1q4 32 5.5 56.5t1.5 42.5
q0 27 -2.5 45.5t-5.5 34.5l-2 10z" />
    <glyph glyph-name="S" unicode="S" horiz-adv-x="586" 
d="M408 93q-35 -23 -62 -33t-53 -15q-35 -8 -78 -8q-35 0 -80 6.5t-107 22.5l57 99q36 -5 67 -8t57 -3q44 0 85.5 5.5t79.5 15.5q-23 49 -43 85t-38 62.5t-34 45.5t-30 33q-12 12 -22.5 21.5t-22 19t-25.5 18.5t-32 20q-23 -10 -46.5 -22.5t-46.5 -26.5l-16 25
q18 17 30.5 28.5t29.5 24.5l-16 8l-24 14l10 27l68 -22q85 60 177.5 90t181.5 34l27 -138q-38 5 -69 8t-53 3q-51 0 -97 -7.5t-86 -19.5q79 -35 125.5 -68.5t77.5 -67.5q35 -39 61.5 -76.5t43.5 -66.5q14 7 25.5 13.5t24.5 14.5l17 -23l-20 -20q-10 -8 -14.5 -13t-12.5 -13
q11 -24 14.5 -42t3.5 -20l-123 -59z" />
    <glyph glyph-name="T" unicode="T" horiz-adv-x="542" 
d="M528 486q-60 19 -115.5 30t-109.5 19q8 -45 13 -92t8 -93t4 -89.5t1 -81.5q0 -31 -0.5 -63t-1.5 -52l-162 -53q20 67 33.5 137.5t22 139t12.5 133.5t6 122q-52 5 -98.5 8t-80.5 5q-10 0 -22.5 1t-20.5 1l-4 28q64 17 120.5 28t107.5 17q1 14 0.5 25t-0.5 22l26 5
q6 -15 10 -27.5t6 -21.5q15 1 30 1.5t29 0.5q46 0 90 -5t89 -14z" />
    <glyph glyph-name="U" unicode="U" 
d="M443 660q21 4 40 5.5t37 1.5q12 0 28.5 -2t33.5 -4q-17 -58 -31 -119t-23.5 -121.5t-15 -119.5t-6.5 -113q29 7 51 16l12 -26q-18 -11 -32.5 -21t-29.5 -18q0 -21 1.5 -40t3.5 -38l-27 -7q-8 18 -12 31t-10 32q-52 -25 -95 -35.5t-81 -15.5q-25 -3 -40 -4.5t-38 -1.5
l12 -29l-22 -16q-12 14 -22 25t-17 21q-24 2 -52 5.5t-63 10.5q-16 35 -16 64q0 13 3.5 26.5t9.5 29.5q14 -5 20 -8t21 -5q-6 15 -11 29.5t-12 33.5q-13 39 -20.5 86.5t-7.5 114.5q0 42 2.5 91.5t10.5 112.5q62 16 156 22q-13 -44 -21.5 -81.5t-14.5 -72.5t-9 -67.5
t-5 -65.5q-1 -13 -1.5 -26.5t-0.5 -27.5q0 -35 5 -74t19 -90q27 -4 54 -5t54 -1q45 0 86 3t79 10q-17 63 -25.5 128t-8.5 133q0 51 5 103.5t14 106.5z" />
    <glyph glyph-name="V" unicode="V" horiz-adv-x="571" 
d="M120 669q46 -96 79 -184.5t58 -177.5q32 60 65.5 111.5t69 95.5t71.5 83t72 74l21 -19q-56 -80 -96.5 -148.5t-70.5 -129.5t-51 -118t-38 -114q6 -29 10 -57l8 -56l-27 -8l-13 37l-7 -38q-57 20 -115 50q14 46 28.5 83.5t28.5 68.5q-8 15 -16 32.5t-16 31.5l-10 22l1 -1
q-12 23 -25.5 49t-32 57.5t-44.5 69.5t-63 85q20 30 42 47.5t46 35.5q4 2 13 9t12 9z" />
    <glyph glyph-name="W" unicode="W" horiz-adv-x="805" 
d="M457 531q29 -49 54 -99t50 -104q28 75 45 147t28 144l150 20q-57 -165 -103 -262t-79 -148l3 -8q7 -18 15 -40t14 -40q-28 -52 -107 -119q-3 23 -5.5 43.5t-7.5 43.5q-14 -17 -27.5 -30.5t-28.5 -27.5l-21 18q17 31 32 58.5t29 56.5q-14 69 -31 133t-37 124
q-17 -54 -36 -106t-37.5 -98t-35 -82.5t-28.5 -58.5l2 -44q0 -4 0.5 -10.5t0.5 -9.5l-28 -3q-4 14 -6.5 24t-7.5 24l-112 35q16 20 35.5 45t33.5 45q-38 101 -86 197t-111 187l115 68q32 -56 58 -117.5t46 -125.5q8 -26 18 -60.5t16 -65.5q41 62 73.5 122.5t58.5 120.5
q-11 32 -21.5 59t-24.5 53l23 15q8 -11 14 -19.5t11 -16t10.5 -15.5t12.5 -20q8 20 15.5 38.5t14.5 38.5l27 -7q-5 -33 -10.5 -63t-13.5 -60z" />
    <glyph glyph-name="X" unicode="X" horiz-adv-x="542" 
d="M161 49q-29 -13 -137 -19q31 91 68 177t93 167q-40 47 -75 98.5t-75 96.5q30 56 83 99l130 -210q45 54 99 105.5t112 93.5l19 -23q-50 -54 -98.5 -117t-85.5 -126q60 -86 114.5 -167t113.5 -169l-20 -20q-40 35 -102.5 100.5t-150.5 164.5q-26 -56 -43.5 -113.5
t-36.5 -127.5z" />
    <glyph glyph-name="Y" unicode="Y" horiz-adv-x="531" 
d="M118 659q34 -76 69.5 -145t75.5 -134q44 82 104 151t126 123l19 -20q-36 -46 -66 -87.5t-53 -83.5t-39 -87t-25 -97l1 -2q11 -15 25 -34t32 -40l-22 -21l-26 24l-18 15q0 -16 -0.5 -36t-0.5 -38q0 -19 0.5 -43t1.5 -45q-65 -33 -142 -28q-2 76 12 143.5t38 130.5
q-60 59 -113 124.5t-98 140.5q14 17 39 39t60 50z" />
    <glyph glyph-name="Z" unicode="Z" horiz-adv-x="594" 
d="M555 577q-18 2 -35 2h-34h-10q-72 -103 -140.5 -216.5t-122.5 -225.5q120 15 214 36.5t148 40.5l-106 -147q-32 -2 -65 -2.5t-63 -0.5q-43 0 -81 1t-79 5l-3 -9l-12 -29h-126l26 51l-40 7v29q21 2 34.5 3t25.5 2q37 73 78 136.5t83.5 119.5t85 105t83.5 93
q-90 -5 -174.5 -19t-165.5 -40q-9 79 19 141q84 -1 178.5 -7t191.5 -24l47 49l22 -20l-24 -33v-1l-3 -3l52 -15z" />
    <glyph glyph-name="a" unicode="a" horiz-adv-x="565" 
d="M24 24l10 55q10 43 21.5 90.5t23.5 85.5q-38 9 -72 26l10 28q24 -6 41.5 -8.5t36.5 -3.5q16 37 34.5 76.5t37.5 77t38.5 72t39.5 61.5q-11 26 -18 40.5t-12 25.5l1 -1q-7 11 -10 20l24 16q11 -14 18 -22t14 -15l19 -20q8 10 14.5 16.5l14.5 14.5q6 6 13.5 12.5t13.5 14.5
l22 -18l-9 -17q-11 -17 -19 -30.5t-19 -36.5q27 -44 52.5 -96.5t45.5 -98.5q7 -17 10.5 -26t10.5 -23q27 5 55.5 10t70.5 8l-51 -111l-32 -2q14 -41 23 -82t14 -65l6 -28l-123 -63q-7 54 -17 118t-23 118q-22 -1 -51 -1.5t-52 -0.5h-33t-28 1q-5 -23 -9.5 -50t-8.5 -55
t-7.5 -55.5t-6.5 -49.5zM332 322q-12 46 -27 93.5t-29 87.5q-19 -45 -38 -98t-33 -102q32 4 64.5 9t62.5 10v0z" />
    <glyph glyph-name="b" unicode="b" horiz-adv-x="599" 
d="M65 521l-43 -12l-11 26q11 6 19 12.5t16 11.5q8 6 18 13t23 14l-4 43l120 40q0 -9 -0.5 -18t0.5 -17q22 8 44.5 15.5t45.5 12.5q-1 3 -0.5 2.5t-0.5 1.5q1 -1 -1 0.5t-8 6.5l19 23l22 -17v-1l10 -7q8 2 18 4t18 4q81 -53 130 -161q-11 5 -19 12t-22 9q6 -10 8.5 -18
t5.5 -15q11 -29 14 -49.5t0 -36.5q-3 -14 -8.5 -26t-18.5 -28q23 -24 41.5 -47t34.5 -47l23 19l20 -20q-7 -9 -11.5 -14t-8.5 -10l1 1l-6 -9q6 -12 12.5 -25.5t12.5 -32.5l-50 -26q-10 -9 -25 -16.5t-24 -16.5l-12 5q-18 -27 -32.5 -54t-32.5 -64l-101 14l30 42
q-48 11 -92 21.5t-85 24.5l-3 -10q-2 -8 -2.5 -14t-2.5 -14t-5 -20.5t-9 -31.5l-27 6q1 10 1 20.5v18.5v62q-41 16 -84 39q17 49 46 96q10 -7 20 -12.5t19 -10.5q-1 34 -2.5 67.5t-3.5 68.5t-4.5 72.5t-5.5 79.5zM204 551q-1 -74 -4.5 -125t-9.5 -95q0 -5 -1 -10t-1 -9
q-3 -26 -5.5 -52t-8.5 -55q60 -32 110.5 -56t82.5 -36q23 27 39 41.5t31 28.5l12 9q-11 35 -21.5 63t-21.5 52q-19 -19 -42 -38t-55 -41l-81 89q47 32 71.5 51.5t37.5 33.5q-10 8 -23.5 18.5t-30.5 22.5l15 26q23 -11 36 -17.5t30 -17.5l7 11q8 16 13 31t7 32q1 11 -1 23.5
t-9 27.5q-27 3 -49 3q-19 0 -39 -1t-39 -3z" />
    <glyph glyph-name="c" unicode="c" horiz-adv-x="560" 
d="M50 189q2 45 5 75.5t8 53.5q-12 21 -26.5 49t-28.5 62l24 15l17 -25l29 -41l6 16t5 14q17 35 37 68.5t40 59.5q11 14 24.5 28t34.5 31q-39 11 -75 9l-3 30q25 6 49 7.5t47 1.5h23t23 -1q2 0 4 -0.5t4 -0.5q11 8 24 14t30 14l14 -25l-11 -7q13 -2 27 -4.5t35 -8.5t52 -17
t77 -29q-15 -15 -25.5 -26.5t-17.5 -20t-12 -16t-10 -15.5q-5 -11 -7.5 -14.5t-4 -4.5t-2.5 -1t-3 -3q-30 20 -55 35t-46.5 26t-41 20t-37.5 17q-15 -16 -24.5 -30.5t-17.5 -28.5q-17 -29 -28.5 -58t-19.5 -56q-8 -26 -13 -52t-9 -54q-4 -17 -4 -32q6 -7 13 -13.5t13 -12.5
q26 -23 52 -38.5t62 -28.5q37 -13 90.5 -23.5t125.5 -5.5l-84 -128q-50 15 -86.5 29.5t-63.5 28t-45.5 26.5t-33.5 25q-11 9 -19.5 17t-16.5 16q-76 -2 -116 19z" />
    <glyph glyph-name="d" unicode="d" horiz-adv-x="659" 
d="M35 569h-1q9 7 17 12.5t22 13.5q-2 16 -4 34t-3 32l123 27q0 -7 0.5 -22t0.5 -21q10 3 20 6.5t20 6.5l-10 5l10 27q31 -6 63 -17q9 2 18.5 3.5t18.5 3.5l34 7l5 -42q9 -4 17 -8t16 -9h-1q31 -17 53.5 -36t44.5 -42q20 -23 41 -52.5t40 -62.5l3 -6v1q4 -5 7 -9.5t5 -11.5
q11 15 19 25l24 -15l-24 -53q11 -35 21 -82l-115 -40v3q-32 -35 -69 -70.5t-82 -61.5t-100.5 -43.5t-131.5 -19.5q-1 -4 -2.5 -8t-2.5 -7q-2 -2 -3 -5.5t-3 -15.5l-29 3q0 5 0.5 11t0.5 9t0.5 3.5l0.5 0.5v1.5v7.5l-71 4q5 10 11.5 25.5t13 31.5t12.5 31t10 26
q13 -2 17 -2.5t7 -0.5q-1 81 -6 176.5t-15 204.5l-27.5 -11t-29.5 -14l-16 25zM330 600h-5l-4 2zM419 493q-18 27 -40 54t-54 53q-46 -2 -77.5 -6.5t-55.5 -10.5q1 -17 0.5 -32.5t-0.5 -29.5q0 -35 -1 -64t-2.5 -54t-4.5 -47.5t-6 -46.5l-5 -49q-3 -23 -5.5 -44.5
t-7.5 -49.5q77 2 123.5 12t79.5 24q20 8 38 16t36 19.5t36.5 27.5t39.5 40q-20 57 -41.5 100.5t-52.5 87.5z" />
    <glyph glyph-name="e" unicode="e" horiz-adv-x="523" 
d="M82 414q5 1 8 0.5t10 1.5q3 42 9.5 83t15.5 83q-22 2 -40.5 2.5t-30.5 -1.5l-6 30q21 6 40.5 10t39.5 8l11 2q2 5 3 8.5t2 7.5l7 26l27 -4v-32q48 5 95.5 7t85.5 2q27 0 54 -1t38 -2q1 -19 2.5 -40.5t2 -41t1 -34.5t0.5 -21q-33 19 -61.5 30t-54.5 17.5t-50.5 10
t-49.5 6.5q-19 2 -31.5 3.5t-32.5 3.5v-21v-67t1 -69q14 1 27.5 1h27.5q106 0 213 -19l-2 -30q-86 -8 -148.5 -14.5t-113.5 -20.5q3 -40 9 -86t20 -106q20 1 40 1h40q63 0 121 -4t99 -10l-49 -110q-46 11 -81.5 19t-63.5 13.5t-49.5 9.5t-38.5 7l9 -32q-23 0 -55 -4t-72 -11
l-9 60q-21 2 -43.5 4t-43.5 4l-1 29q21 5 40.5 9t42.5 6q-3 27 -4.5 60t-1.5 65v23.5t1 24.5q-9 -4 -19 -8t-21 -9q-5 82 -22 115z" />
    <glyph glyph-name="f" unicode="f" horiz-adv-x="485" 
d="M68 413q8 1 11 0.5t12 1.5q4 41 10.5 79.5t14.5 79.5q-6 0 -13.5 0.5t-13.5 0.5q-38 0 -60 -3l-6 29q26 9 52.5 15t52.5 11q0 1 0.5 1.5t0.5 1.5l14 48l27 -4q0 -14 0.5 -19.5t-0.5 -19.5q44 6 88.5 10t84 6.5t70 3t46.5 0.5q5 -45 8 -79.5t3 -57.5q-36 17 -66.5 27
t-58.5 15t-55 7t-55 3q-14 2 -29.5 2t-30.5 1h-6v-18v-65.5t1 -68.5q7 0 14 0.5t15 0.5q53 0 98.5 -5.5t81.5 -15.5l-3 -29q-69 -4 -117.5 -9t-85.5 -15q4 -57 16 -132.5t41 -182.5q-24 0 -56 -3.5t-70 -11.5q-9 52 -15 114t-6 127q0 19 -1 28.5t1 29.5q-10 -5 -19.5 -10
t-23.5 -12q-35 68 -15 114z" />
    <glyph glyph-name="g" unicode="g" 
d="M63 389q0 50 10 100q-7 -4 -13.5 -9.5t-16.5 -12.5q-5 82 16 132q14 8 28.5 13.5t28.5 10.5l-2 -1q-1 -1 1 0t4 1l9 18q5 10 11 20.5t13 21.5l24 -11l-8 -32q48 14 91 20t81 9q20 2 41.5 3.5t42.5 1.5q59 0 143 -12v-30q-59 -6 -103.5 -12.5t-80.5 -13.5t-66 -15.5
t-58 -17.5q-27 -10 -54.5 -20t-54.5 -22v-43q0 -20 0.5 -45.5t4.5 -53.5q48 8 84.5 9.5t67.5 1.5h8q40 -1 82 -3t96 -13q26 37 60 68l20 -16q-8 -20 -12.5 -32.5t-11.5 -32.5q11 -2 22.5 -5t17.5 -5q-5 -10 -11.5 -24t-13 -29.5t-13 -30t-10.5 -24.5l-26 9l-3 -13
q-5 -15 -9.5 -39t-8.5 -48l-2 -20l43 -10l-46 -99l-7 2q0 -2 0.5 -5.5t1.5 -8.5l-101 -5q-2 17 -1.5 29.5t1.5 22.5q-24 5 -48 8t-47 5q-9 0 -17.5 0.5t-17.5 0.5q0 -3 4 -5l-101 -62q-14 18 -19.5 28.5t-11.5 23.5q-12 -3 -27 -6.5t-29 -7.5l-12 25q17 11 29 18t23 13
q-12 38 -21.5 85t-16.5 94v-1q0 5 -1 10q-2 10 -2 17l-1 13q-5 0 -6.5 -0.5t-5.5 -0.5q-7 -1 -17 -1h-24l-3 29q8 2 16.5 5.5t15.5 5.5l10.5 3.5t9.5 3.5v17zM421 235v-3v3zM260 326q-14 1 -24.5 1.5l-21 1t-22 0.5h-27.5q8 -37 20 -82.5t35 -99.5q23 4 44.5 5.5t43.5 1.5
q9 0 18.5 0.5t18.5 0.5h27.5t26.5 -2l3 12q4 17 8.5 35.5t11.5 37.5l-1 -3q2 4 2 5l8 26t9 24q-55 18 -97.5 25t-82.5 11z" />
    <glyph glyph-name="h" unicode="h" horiz-adv-x="597" 
d="M69 295q-11 0 -22 -1t-25 -3l-7 28l40 13q5 2 6.5 2t8.5 2q2 63 14.5 141t50.5 186l27 -5q-1 -19 -1.5 -44.5t-0.5 -54.5q0 -45 0.5 -91.5t5.5 -110.5q50 7 101 10.5t102 3.5q12 0 17.5 0.5t17.5 -0.5q5 72 19 144.5t37 136.5l27 -6q-6 -62 -6 -133q0 -39 1.5 -72
t4.5 -75q23 -2 46.5 -4.5t50.5 -7.5l-37 -110q-14 5 -25 8.5t-27 7.5q6 -51 15 -103t20 -106l-122 -20q-5 52 -7.5 101.5t-2.5 97.5q0 17 -0.5 26.5t0.5 26.5q-45 9 -87.5 12t-74.5 5q-8 0 -20.5 0.5t-20.5 0.5q-10 0 -12 -0.5t-12 -0.5q5 -54 13 -112t19 -127l-114 -47
q-11 62 -15 124t-5 137v20z" />
    <glyph glyph-name="i" unicode="i" horiz-adv-x="220" 
d="M59 32q-5 55 -8 114.5t-3 120.5q0 94 11 190.5t43 193.5l27 -6q-1 -16 -1 -33.5v-36.5q0 -97 12 -230.5t45 -294.5z" />
    <glyph glyph-name="j" unicode="j" horiz-adv-x="371" 
d="M120 94q-3 -3 1 -1q-1 0 0 1h-1zM90 66l29 29q-29 17 -57.5 37.5t-51.5 41.5l70 105q28 -42 53 -76t47 -61q6 5 11.5 11t13.5 11l12 11q-1 25 -1 49.5v47.5q0 166 10 264t27 141l25 -6q1 -49 7.5 -112t15.5 -128.5t19 -128.5t19 -112q-34 -26 -60.5 -52t-47.5 -52l19 -19
q2 -2 6.5 -7t6.5 -6l-15 -23q-11 4 -23 9.5t-22 10.5l-28 -43z" />
    <glyph glyph-name="k" unicode="k" horiz-adv-x="512" 
d="M233 310q-20 -28 -41 -53t-44 -49q6 -31 14.5 -68t18.5 -76q-11 -8 -44 -18.5t-87 -23.5l-4 94l-16 -12l-19 23q13 15 24 30l9 9q-1 24 -1.5 48t-0.5 50q0 85 8.5 182.5t33.5 217.5l28 -3q0 -38 0.5 -67.5t1.5 -55t2 -49.5t3 -52q1 -16 1.5 -29.5t2 -29.5t4.5 -36.5
t8 -49.5q14 21 26.5 42.5t25.5 44.5q-8 11 -15.5 20.5t-14.5 18.5l-9 14l17 16q13 -8 22.5 -13.5t22.5 -15.5q29 52 49 102.5t37 101.5q14 3 33.5 7.5t40 9.5t40 9.5t33.5 8.5q-25 -54 -47.5 -97.5t-43.5 -79t-40.5 -64.5t-37.5 -54q68 -63 120 -137.5t95 -161.5
q-12 -6 -29 -13.5t-34.5 -15.5t-34.5 -15.5t-30 -12.5q-25 98 -59 172t-69 131z" />
    <glyph glyph-name="l" unicode="l" horiz-adv-x="436" 
d="M23 89v31q20 2 33 3t33 4q-19 81 -29.5 173.5t-10.5 192.5q0 40 1.5 81t6.5 83l134 15q-11 -48 -20.5 -103.5t-17 -115.5t-11.5 -122t-4 -123q0 -23 -0.5 -37t1.5 -36q72 12 143.5 32t148.5 48l-59 -144q-14 -1 -33.5 -1h-33.5q-39 0 -79 1.5t-83 5.5q1 -13 2 -25.5
t3 -23.5l-27 -7q-6 17 -10 29t-9 29z" />
    <glyph glyph-name="m" unicode="m" horiz-adv-x="679" 
d="M248 317l26 33q-24 47 -49.5 88.5t-51.5 74.5q-9 -68 -13 -137.5t-4 -137.5q0 -57 3.5 -116.5t10.5 -120.5l-132 64q-2 51 3 113.5t15.5 129.5t27.5 134t39 126q-19 20 -36 33.5t-37 24.5l14 27q23 -12 38 -21t38 -24q8 20 17 37.5t18 35.5l26 -10q-5 -23 -10 -44.5
t-8 -46.5q45 -33 85 -68.5t78 -77.5q38 42 75.5 78t70.5 65q-5 20 -10 40.5t-12 42.5l26 12q11 -20 17.5 -33t15.5 -33q12 9 24 16.5t27 16.5q19 -34 36 -59.5t30 -42.5l-29 -15l-44 -22q39 -112 55 -222.5t15 -216.5q-63 -35 -146 -41q17 83 23.5 145.5t6.5 113.5
q0 22 -1 42.5t-2 40.5q-1 16 -2 28.5t-2 24t-2.5 24t-4.5 29.5q-33 -19 -64 -39.5t-62 -43.5q14 -17 28.5 -35.5t25.5 -37.5l-109 -89q-11 26 -20 48t-18 42q-11 -11 -22 -21t-22 -19l-21 21z" />
    <glyph glyph-name="n" unicode="n" 
d="M87 11q-15 61 -22 117.5t-7 111.5q0 75 11 151.5t34 160.5q-20 21 -39.5 39t-38.5 35l16 25q19 -11 38 -23t40 -26q5 18 11 34.5t13 34.5l26 -8q-4 -25 -7 -47t-6 -42q79 -59 152 -128t140 -147q-1 71 -8 143.5t-23 145.5l141 55q-2 -100 -10 -208.5t-33 -217.5
q17 -23 37 -53t35 -54l-109 -66l-9 19l-13 -34l-26 7q2 17 5 34.5t5 43.5q-66 113 -140 210t-151 179q-2 -18 -2 -34.5v-32.5q0 -30 2 -58t5 -57q7 -68 16.5 -132t27.5 -130z" />
    <glyph glyph-name="o" unicode="o" horiz-adv-x="608" 
d="M473 647l2 -4q20 -1 40.5 -3t46.5 -5v-29q-20 -3 -33 -5t-33 -7q22 -59 31 -111t9 -105q0 -14 -0.5 -30t-2.5 -30q-2 -35 -10 -76.5t-17 -76.5q30 -3 64 -9l-47 -123l-64 22q-8 -11 -14 -19.5t-13 -15.5l-22 14q4 11 6.5 17.5t4.5 15.5q-46 11 -81 14t-68 3h-18t-17 -1
l11 -17l-135 -41q-5 10 -8.5 20t-8.5 21l-69 -19l-12 27l28 16q8 6 19 11.5t19 10.5q-16 50 -21.5 93t-5.5 85v19t1 20q2 26 5.5 56t11.5 60l-14 -7q-25 49 -30 98q35 21 60.5 35.5t42.5 22.5l10 18l19 34l26 -14q-3 -7 -4 -8.5t-1.5 -2t-1 -1.5t-1.5 -7q11 4 22.5 6t26.5 4
l20 2q22 4 50 8.5t63 6.5q68 39 95 48zM434 335q-8 57 -22 113t-41 115q-57 -16 -111 -36.5t-113 -46.5q-1 -10 -1.5 -20t-0.5 -20q0 -8 0.5 -16t0.5 -16q1 -50 10 -111t45 -141q39 11 69.5 13.5t59.5 3.5q9 1 21.5 1h22.5h33t33 -2q2 14 2 28v28q0 27 -2 53.5t-6 53.5z" />
    <glyph glyph-name="p" unicode="p" horiz-adv-x="557" 
d="M377 272q-42 -7 -89 -11.5t-97 -4.5q2 -22 3 -45.5t1 -43.5q0 -61 -12 -134l-129 -2q14 68 22 123.5t13 106.5l-77 11q4 26 12 55.5t23 67.5l48 -17v34v45.5t-2 45.5q-20 -5 -36.5 -8.5t-32.5 -7.5l-9 27l28 17v-1q11 7 22 13.5t24 12.5q-2 27 -4.5 52.5t-6.5 51.5l27 7
q6 -17 12.5 -37t12.5 -43l5 -12q60 22 115.5 37.5t98.5 24.5l-8 22l22 15q8 -9 14 -16t13 -15q9 1 18 1.5t20 0.5q39 -50 58 -127l-26 5q13 -28 19 -51.5t11 -43.5q5 -25 8 -47t4 -46l33 2l5 -30l-38 -12q0 -12 -1 -27t-3 -29l-121 10v23zM171 357l8 -3l2 -11zM152 514
q19 -85 27 -160q45 -11 95 -16.5t113 -6.5q5 33 6.5 57t1.5 43q0 29 -3 49.5t-7 37.5l2 -4q-5 11 -6 17l-1 2h-22q-49 0 -102 -5.5t-104 -13.5z" />
    <glyph glyph-name="q" unicode="q" horiz-adv-x="584" 
d="M153 659l26 -13q-3 -7 -4 -8.5t-1.5 -2.5t-1 -2.5l-2.5 -7.5q10 3 21.5 5t26.5 4q22 5 56.5 9.5t77.5 8.5q35 19 57.5 30.5t36.5 16.5l19 -40l1 -5q19 0 40 -1.5t47 -5.5l1 -28q-20 -4 -33.5 -6.5t-33.5 -7.5q22 -58 31.5 -109.5t9.5 -105.5q0 -14 -0.5 -29.5t-2.5 -29.5
q-3 -38 -10.5 -77.5t-17.5 -75.5q17 -2 34 -5t30 -5l-47 -121l-63 20q-12 -19 -28 -34l-22 14q4 9 6 14t5 16q-16 5 -28 8t-29 5q0 -2 0.5 -3.5t0.5 -3.5q7 -23 14 -76q-32 11 -63.5 18.5t-62.5 14.5l12 56h-28h-1l13 -19l-134 -39q-10 19 -12.5 26.5t-4.5 12.5q-2 4 -0.5 1
t-0.5 -1q-8 -2 -16 -3.5t-18 -4.5l-27 -9l-11 28q14 8 21.5 12.5t13.5 9.5h-1q6 5 11.5 8t10.5 6q-17 51 -22 96t-5 88q0 8 0.5 15.5t0.5 15.5q2 29 5.5 58t11.5 58l-13 -7q-14 26 -21 50.5t-10 50.5q35 20 60.5 34t42.5 22zM373 579l-12 -3l-5 10zM273 176q0 2 0.5 3.5
t0.5 3.5q8 0 12 1l-14 -16q0 2 0.5 4t0.5 4zM425 347q-8 57 -21.5 112.5t-42.5 116.5q-54 -17 -109.5 -37.5t-113.5 -46.5q-1 -11 -1 -20.5v-20.5v-31q1 -51 10.5 -112t45.5 -140q24 6 43.5 9.5t37.5 5.5q2 8 5.5 20.5t6.5 25.5t6.5 24.5t5.5 19.5q9 -20 13.5 -31t6.5 -17
t2.5 -9t1.5 -5q3 -6 5 -11.5t5 -13.5h21h39t39 -2q2 14 2 28v27q0 27 -2 54t-6 54z" />
    <glyph glyph-name="r" unicode="r" horiz-adv-x="611" 
d="M396 250q2 6 1 10t0 11l-18 -3zM16 510q26 14 48.5 25t42.5 20l-10 104l26 8q11 -26 17.5 -48t13.5 -45q62 24 115.5 39t98.5 23q-2 5 -4.5 9t-4.5 12l23 16l22 -27l3 -4q10 1 19 1.5t20 0.5q40 -51 58 -121q-8 2 -12.5 1t-13.5 0q12 -27 19 -52t12 -45q5 -24 7.5 -46.5
t3.5 -46.5l35 2l4 -30l-16 -5l-23 -5q0 -14 -1 -27.5t-3 -30.5l-118 10q63 -64 114 -100.5t77 -47.5q-59 -59 -131 -77q-51 51 -91.5 108.5t-74.5 126.5q-41 -3 -83 -3q2 -23 3 -47t1 -44q0 -31 -3 -63t-8 -69l-129 -2q14 68 22 124t13 107h-5q-15 2 -31.5 4t-41.5 7
q3 25 12.5 54.5t23.5 67.5l48 -17v28q0 29 -0.5 48.5t-2.5 48.5q-24 -5 -46 -10t-39 -10zM400 532h-23q-49 0 -102.5 -5.5t-104.5 -13.5q11 -44 17.5 -84t11.5 -77q23 -7 56 -11l-8 24q-1 2 -4 8.5t-6 14.5l24 15l30 -37l28 -32q21 -2 42 -3t45 -1q4 32 5.5 56.5t1.5 42.5
q0 27 -2.5 45.5t-5.5 34.5l-2 10z" />
    <glyph glyph-name="s" unicode="s" horiz-adv-x="586" 
d="M408 93q-35 -23 -62 -33t-53 -15q-35 -8 -78 -8q-35 0 -80 6.5t-107 22.5l57 99q36 -5 67 -8t57 -3q44 0 85.5 5.5t79.5 15.5q-23 49 -43 85t-38 62.5t-34 45.5t-30 33q-12 12 -22.5 21.5t-22 19t-25.5 18.5t-32 20q-23 -10 -46.5 -22.5t-46.5 -26.5l-16 25
q18 17 30.5 28.5t29.5 24.5l-16 8l-24 14l10 27l68 -22q85 60 177.5 90t181.5 34l27 -138q-38 5 -69 8t-53 3q-51 0 -97 -7.5t-86 -19.5q79 -35 125.5 -68.5t77.5 -67.5q35 -39 61.5 -76.5t43.5 -66.5q14 7 25.5 13.5t24.5 14.5l17 -23l-20 -20q-10 -8 -14.5 -13t-12.5 -13
q11 -24 14.5 -42t3.5 -20l-123 -59z" />
    <glyph glyph-name="t" unicode="t" horiz-adv-x="542" 
d="M528 486q-60 19 -115.5 30t-109.5 19q8 -45 13 -92t8 -93t4 -89.5t1 -81.5q0 -31 -0.5 -63t-1.5 -52l-162 -53q20 67 33.5 137.5t22 139t12.5 133.5t6 122q-52 5 -98.5 8t-80.5 5q-10 0 -22.5 1t-20.5 1l-4 28q64 17 120.5 28t107.5 17q1 14 0.5 25t-0.5 22l26 5
q6 -15 10 -27.5t6 -21.5q15 1 30 1.5t29 0.5q46 0 90 -5t89 -14z" />
    <glyph glyph-name="u" unicode="u" 
d="M443 660q21 4 40 5.5t37 1.5q12 0 28.5 -2t33.5 -4q-17 -58 -31 -119t-23.5 -121.5t-15 -119.5t-6.5 -113q29 7 51 16l12 -26q-18 -11 -32.5 -21t-29.5 -18q0 -21 1.5 -40t3.5 -38l-27 -7q-8 18 -12 31t-10 32q-52 -25 -95 -35.5t-81 -15.5q-25 -3 -40 -4.5t-38 -1.5
l12 -29l-22 -16q-12 14 -22 25t-17 21q-24 2 -52 5.5t-63 10.5q-16 35 -16 64q0 13 3.5 26.5t9.5 29.5q14 -5 20 -8t21 -5q-6 15 -11 29.5t-12 33.5q-13 39 -20.5 86.5t-7.5 114.5q0 42 2.5 91.5t10.5 112.5q62 16 156 22q-13 -44 -21.5 -81.5t-14.5 -72.5t-9 -67.5
t-5 -65.5q-1 -13 -1.5 -26.5t-0.5 -27.5q0 -35 5 -74t19 -90q27 -4 54 -5t54 -1q45 0 86 3t79 10q-17 63 -25.5 128t-8.5 133q0 51 5 103.5t14 106.5z" />
    <glyph glyph-name="v" unicode="v" horiz-adv-x="571" 
d="M120 669q46 -96 79 -184.5t58 -177.5q32 60 65.5 111.5t69 95.5t71.5 83t72 74l21 -19q-56 -80 -96.5 -148.5t-70.5 -129.5t-51 -118t-38 -114q6 -29 10 -57l8 -56l-27 -8l-13 37l-7 -38q-57 20 -115 50q14 46 28.5 83.5t28.5 68.5q-8 15 -16 32.5t-16 31.5l-10 22l1 -1
q-12 23 -25.5 49t-32 57.5t-44.5 69.5t-63 85q20 30 42 47.5t46 35.5q4 2 13 9t12 9z" />
    <glyph glyph-name="w" unicode="w" horiz-adv-x="805" 
d="M457 531q29 -49 54 -99t50 -104q28 75 45 147t28 144l150 20q-57 -165 -103 -262t-79 -148l3 -8q7 -18 15 -40t14 -40q-28 -52 -107 -119q-3 23 -5.5 43.5t-7.5 43.5q-14 -17 -27.5 -30.5t-28.5 -27.5l-21 18q17 31 32 58.5t29 56.5q-14 69 -31 133t-37 124
q-17 -54 -36 -106t-37.5 -98t-35 -82.5t-28.5 -58.5l2 -44q0 -4 0.5 -10.5t0.5 -9.5l-28 -3q-4 14 -6.5 24t-7.5 24l-112 35q16 20 35.5 45t33.5 45q-38 101 -86 197t-111 187l115 68q32 -56 58 -117.5t46 -125.5q8 -26 18 -60.5t16 -65.5q41 62 73.5 122.5t58.5 120.5
q-11 32 -21.5 59t-24.5 53l23 15q8 -11 14 -19.5t11 -16t10.5 -15.5t12.5 -20q8 20 15.5 38.5t14.5 38.5l27 -7q-5 -33 -10.5 -63t-13.5 -60z" />
    <glyph glyph-name="x" unicode="x" horiz-adv-x="542" 
d="M161 49q-29 -13 -137 -19q31 91 68 177t93 167q-40 47 -75 98.5t-75 96.5q30 56 83 99l130 -210q45 54 99 105.5t112 93.5l19 -23q-50 -54 -98.5 -117t-85.5 -126q60 -86 114.5 -167t113.5 -169l-20 -20q-40 35 -102.5 100.5t-150.5 164.5q-26 -56 -43.5 -113.5
t-36.5 -127.5z" />
    <glyph glyph-name="y" unicode="y" horiz-adv-x="531" 
d="M118 659q34 -76 69.5 -145t75.5 -134q44 82 104 151t126 123l19 -20q-36 -46 -66 -87.5t-53 -83.5t-39 -87t-25 -97l1 -2q11 -15 25 -34t32 -40l-22 -21l-26 24l-18 15q0 -16 -0.5 -36t-0.5 -38q0 -19 0.5 -43t1.5 -45q-65 -33 -142 -28q-2 76 12 143.5t38 130.5
q-60 59 -113 124.5t-98 140.5q14 17 39 39t60 50z" />
    <glyph glyph-name="z" unicode="z" horiz-adv-x="594" 
d="M555 577q-18 2 -35 2h-34h-10q-72 -103 -140.5 -216.5t-122.5 -225.5q120 15 214 36.5t148 40.5l-106 -147q-32 -2 -65 -2.5t-63 -0.5q-43 0 -81 1t-79 5l-3 -9l-12 -29h-126l26 51l-40 7v29q21 2 34.5 3t25.5 2q37 73 78 136.5t83.5 119.5t85 105t83.5 93
q-90 -5 -174.5 -19t-165.5 -40q-9 79 19 141q84 -1 178.5 -7t191.5 -24l47 49l22 -20l-24 -33v-1l-3 -3l52 -15z" />
    <glyph glyph-name="zero" unicode="0" horiz-adv-x="608" 
d="M473 647l2 -4q20 -1 40.5 -3t46.5 -5v-29q-20 -3 -33 -5t-33 -7q22 -59 31 -111t9 -105q0 -14 -0.5 -30t-2.5 -30q-2 -35 -10 -76.5t-17 -76.5q30 -3 64 -9l-47 -123l-64 22q-8 -11 -14 -19.5t-13 -15.5l-22 14q4 11 6.5 17.5t4.5 15.5q-46 11 -81 14t-68 3h-18t-17 -1
l11 -17l-135 -41q-5 10 -8.5 20t-8.5 21l-69 -19l-12 27l28 16q8 6 19 11.5t19 10.5q-16 50 -21.5 93t-5.5 85v19t1 20q2 26 5.5 56t11.5 60l-14 -7q-25 49 -30 98q35 21 60.5 35.5t42.5 22.5l10 18l19 34l26 -14q-3 -7 -4 -8.5t-1.5 -2t-1 -1.5t-1.5 -7q11 4 22.5 6t26.5 4
l20 2q22 4 50 8.5t63 6.5q68 39 95 48zM434 335q-8 57 -22 113t-41 115q-57 -16 -111 -36.5t-113 -46.5q-1 -10 -1.5 -20t-0.5 -20q0 -8 0.5 -16t0.5 -16q1 -50 10 -111t45 -141q39 11 69.5 13.5t59.5 3.5q9 1 21.5 1h22.5h33t33 -2q2 14 2 28v28q0 27 -2 53.5t-6 53.5z" />
    <glyph glyph-name="one" unicode="1" horiz-adv-x="236" 
d="M129 667q3 -11 7 -23.5t6 -23.5l1 -11q13 11 26 20.5t30 20.5l18 -17q-2 -4 -4 -6t-3 -4q-2 -2 -2 -4q-13 -17 -25.5 -34.5t-26.5 -39.5q14 -83 21.5 -176t7.5 -193q0 -30 -1 -67.5t-3 -67.5l-138 -23q19 67 31.5 127t20 115t11 107t3.5 103l-37 -66l-56 79q23 26 46 51
t45 45q-1 20 -2 42t-3 42z" />
    <glyph glyph-name="two" unicode="2" horiz-adv-x="597" 
d="M513 402v-1q9 3 17 4.5t24 7.5l11 -29l-35 -15l13 -30l-134 -47l-8 16q-24 -14 -43 -29.5t-35.5 -33t-31.5 -37.5t-32 -43q11 1 22 1h21q72 0 130 -12.5t99 -31.5l-91 -98q-125 42 -238 57l-4 -6q-7 -11 -15.5 -26.5t-15.5 -27.5l-133 16l37 57q-13 1 -23 1.5t-25 -1.5
l-5 28l33 10h-1q17 5 30 8t28 6q31 40 61.5 72.5t63.5 58.5t71 46.5t85 37.5q-12 54 -33.5 102.5t-56.5 96.5q-60 -34 -112 -78.5t-104 -103.5l-46 117q65 44 117 71.5t103 45.5l-18 18t-20 18l12 24q47 -14 86 -42q30 9 57 14t53 9l7 -30q-23 -9 -36 -14t-34 -15
q38 -34 75.5 -82t72.5 -110h1z" />
    <glyph glyph-name="three" unicode="3" horiz-adv-x="528" 
d="M394 272q0 -1 1 -1.5t0 0.5v1l-1 1v-1zM505 334l-79 -102q-11 15 -18 23t-13 16q0 1 -1 2q-1 0 0 -1q-20 -37 -42 -70t-45 -60q13 -2 27 -3t29 -2l-65 -107l-70 31q-3 -2 -5 -3t-4 -3h1l-26 -22l-110 77l38 21q-35 27 -59 56.5t-41 55.5l19 19q40 -28 78.5 -50t77.5 -36
q43 30 80.5 67t70.5 80q-15 15 -33.5 29.5t-33.5 25.5l-1 -3l-14 -30l-108 37l30 39q2 5 2 3.5t3 2.5q-20 8 -43.5 15.5t-46.5 15.5l5 29q33 -1 62.5 -5t56.5 -11q24 31 52.5 61t56.5 56q-64 -10 -138 -27t-159 -41l69 125h59q42 0 101 -1t127 -5l56 45l19 -22l-19 -23
q-2 -3 -1.5 -2.5t2 1.5t2 1.5t-2.5 -2.5l38 -4v-31q-20 0 -36 -0.5t-36 -2.5q-29 -38 -56 -78.5t-47 -75.5q24 -10 45.5 -20t44.5 -23q8 11 16 23t16 26l25 -11q-5 -18 -8.5 -32t-9.5 -31z" />
    <glyph glyph-name="four" unicode="4" horiz-adv-x="606" 
d="M425 449q13 -29 22.5 -57.5t17.5 -57.5q27 0 56.5 -2t61.5 -5l-30 -130l-31 5q-13 2 -16 3t-15 3q2 -21 3.5 -41t1.5 -36q0 -17 -2 -32t-4 -27l-154 -54l12 40q13 54 21.5 90t14.5 73q-30 3 -57 4.5t-55 1.5q-33 0 -67 -1.5t-71 -6.5q-16 -13 -33 -26t-32 -27l-20 22
q6 6 7.5 8t3 3t3 3t7.5 9q-11 -2 -22.5 -3.5t-22.5 -3.5l-7 28q26 10 50 18.5t48 16.5q64 81 121.5 176.5t116.5 213.5l163 27q-47 -88 -119.5 -188t-176.5 -200q49 14 94 22t86 13q1 11 1.5 21t0.5 20q0 20 -1 37t-3 34z" />
    <glyph glyph-name="five" unicode="5" horiz-adv-x="551" 
d="M485 220q0 -14 -1.5 -28t-3.5 -28l49 -9l-30 -125q-36 20 -57 26q-13 -24 -40 -44q-24 26 -41 41.5t-30 24.5q-18 2 -37 3t-39 1q-48 0 -102.5 -6.5t-114.5 -23.5l-12 25q28 22 65.5 39t82 29t93 19t97.5 7q10 22 15 50t2 54q-3 24 -11.5 49.5t-31.5 61.5q-29 2 -56 3
t-50 1h-21t-18 -1v-22.5t1 -23.5l-26 -6q-4 8 -8 20l-7 21q0 2 -2 8q-29 -2 -53 -6.5t-45 -9.5l-9 29q27 12 47.5 21t45.5 18q-6 26 -9 57t-5 69q-6 0 -12 0.5t-12 0.5q-34 0 -64 -3l-5 30q25 7 45.5 11.5t46.5 9.5q-1 15 -1.5 32.5t-0.5 28.5l128 -4q-16 -31 -18 -38
q45 6 86.5 10.5t76 6.5t59.5 2.5t36 -0.5l-28 -112q-69 10 -129.5 16t-119.5 8q-5 -25 -10 -52t-7 -53q23 7 42 11.5t37 9.5q-2 2 -3 4l-2 4l-19 28l20 20q9 -7 20.5 -17t22.5 -21h-1q4 -3 4.5 -4.5t4.5 -3.5q42 7 83 9t79 1l-41 -119l-15 1q37 -48 48 -85.5t11 -75.5z" />
    <glyph glyph-name="six" unicode="6" horiz-adv-x="618" 
d="M549 68l-2 1zM503 389q25 -48 40 -100t20 -106h24q7 -39 7.5 -71t-2.5 -60q-11 4 -20 8t-17 6q-2 -8 -4.5 -18.5t-5.5 -22.5l-112 35l6 29q-13 1 -29 1.5t-29 0.5q-72 0 -154 -15q2 -5 3.5 -10.5t4.5 -12.5l-109 -35l-12 19l-1 2q-2 5 -2 3.5t-2 3.5l-32 -11l-10 28
l29 19q-15 45 -21 85t-6 84q0 17 1 35t3 35v8v3.5v3.5t1 7l-8 -2h2q-8 -2 -16.5 -5t-28.5 -8l-9 26q14 9 21.5 16t13.5 13l16.5 16.5t23.5 16.5q8 28 19.5 56.5t32.5 60.5t55.5 69t88.5 82l20 -20q-28 -40 -46 -70t-29 -53.5t-17 -42t-10 -35.5q39 13 79.5 23t82.5 18
q-6 8 -12 14l-14 14l18 22q15 -10 29.5 -21t26.5 -22l20 2q6 1 13.5 1.5t22.5 3.5l86 -130zM196 130l16 5q1 -4 1.5 -8t1.5 -7zM183 330q0 -36 6.5 -82.5t22.5 -112.5q63 22 125.5 34.5t119.5 15.5q2 14 2 25v22q0 39 -6 70.5t-14 58.5l-4 13h1q-2 8 -2 9.5t-3 8.5
q-7 0 -14.5 0.5t-13.5 0.5q-64 0 -115 -6t-103 -16q-1 -9 -1.5 -20t-0.5 -21z" />
    <glyph glyph-name="seven" unicode="7" horiz-adv-x="566" 
d="M542 600q-20 -8 -37.5 -12.5t-34.5 -8.5l-15 -4q-24 -32 -42.5 -69t-35.5 -72q-4 -9 -7 -16t-6 -13t-7 -13t-9 -17q37 0 91 -6l-52 -78q-44 5 -79 6q-38 -71 -71 -145t-60 -142q-53 16 -86 28.5t-47 20.5q42 81 73 138.5t60 105.5h-17q-36 0 -64 -3l-5 29q33 12 63 20.5
t61 13.5q25 34 41.5 57.5t29.5 42.5q16 23 31 45t34 44q-76 -15 -155.5 -27.5t-175.5 -17.5l41 127q11 -2 35.5 -4.5t59 -4t76.5 -2.5t89 -1q26 0 52 0.5t55 0.5q24 20 44 34t40 27l17 -23q-7 -7 -10 -10.5t-6 -6.5t-6 -7t-10 -12q10 1 19 1.5t19 2.5z" />
    <glyph glyph-name="eight" unicode="8" horiz-adv-x="655" 
d="M627 56q-16 -2 -34 -4t-29 -3v-4l-4 -19l-28 3v20q-70 0 -157.5 19.5t-193.5 61.5l-27 -82q-37 14 -67 33t-59 43q6 20 10.5 35.5t10.5 30.5q-4 3 -7.5 6t-6.5 6h1q-2 2 -6 4.5t-13 7.5l13 27l17 -9q5 -2 8 -3.5t9 -3.5q23 48 49 88.5t57.5 75.5t68.5 65t83 57
q-5 5 -18 13t-19 13q-17 -11 -34.5 -24t-33.5 -27l-85 83q18 11 31.5 19.5t24.5 13.5l-37 25q20 18 47 33t59 26q11 -8 24.5 -18t24.5 -18l1 -1q28 7 55.5 10t52.5 3q29 0 57.5 -4t54.5 -12q14 7 29 13.5t31 12.5l-1 -1l8 4l15 -26q-8 -5 -11.5 -7.5t-6 -4t-5 -3.5t-9.5 -6
l5 -2l-8 -28q-14 2 -24 3t-18 1q-29 -19 -51 -42t-41 -39q19 -21 33.5 -39t26 -35.5t19.5 -35t16 -37.5v1q18 -47 29.5 -96t11.5 -109zM486 604q-4 -1 -18.5 -3.5t-31.5 -6t-32 -6.5t-18 -4l32 -29zM281 356q-22 -36 -41.5 -76t-40.5 -97q54 -13 100.5 -18t88.5 -5
q38 0 72.5 4t64.5 10q-8 58 -24.5 97.5t-39.5 76.5v-1q-17 29 -39 59t-56 62q-23 -26 -44 -53.5t-41 -59.5v1v0z" />
    <glyph glyph-name="nine" unicode="9" horiz-adv-x="508" 
d="M433 591l3 -11q10 -4 19 -8.5t18 -9.5l10 -4l-7 -29l-26 3h-1q10 -50 10 -98t-8 -88.5t-22 -78.5q-2 -2 -5 -12.5t-6 -19.5q8 -8 17 -17.5t17 -20.5l-18 -22q-11 7 -16.5 11t-16.5 10q-26 -49 -65.5 -91.5t-105.5 -88.5l-93 95q65 40 104 71.5t62 60.5q-28 12 -55.5 20
t-53.5 14q3 -8 7 -18t9 -22l-127 5l-8 53q-10 1 -17.5 1h-15.5h-27l7 100h17q11 1 16 1.5t19 -0.5q2 29 9 60t18 64l-40 -8l5 111q22 5 41 7.5t40 3.5l22 44l28 -10q-2 -6 -4 -12.5t-4 -11.5l-4 -10q54 -1 106.5 -11t103.5 -27q-2 5 -3 12.5t-4 18.5l27 11q8 -17 11 -27.5
t7 -21.5v1zM374 364q11 33 20 66t9 78v13.5t-1 14.5q-39 3 -77 3q-45 0 -86.5 -2.5t-75.5 -6.5q-2 -15 -2.5 -28.5t-0.5 -28.5q0 -20 1.5 -42t5.5 -47q97 -28 177 -85q10 17 16 31t12 31l-1 -6q0 2 1 3t1 2z" />
    <glyph glyph-name="colon" unicode=":" horiz-adv-x="272" 
d="M103 156q42 -5 79.5 -14.5t71.5 -26.5l-91 -97q-29 10 -63.5 19.5t-76.5 18.5zM100 667q42 -5 79.5 -15t71.5 -27l-91 -96q-29 9 -63 19t-76 19z" />
    <glyph glyph-name="semicolon" unicode=";" horiz-adv-x="274" 
d="M102 667q42 -5 79.5 -15t71.5 -27l-91 -96q-29 9 -63 19t-76 19zM89 138q63 -1 148 -41q-47 -42 -87 -107t-75 -153q-24 94 -24 147q0 71 25 143z" />
    <glyph glyph-name="question" unicode="?" horiz-adv-x="575" 
d="M348 606q35 -32 69.5 -74.5t68.5 -99.5l22 2l36 3l7 -28l-42 -19l19 -37l-142 -52q-2 6 -1.5 10t-0.5 9q-35 -27 -60 -61t-42 -63l-141 12q3 8 7.5 22.5t12 31t18 33.5t25.5 32q10 10 23 21t31.5 22t44 21.5t60.5 19.5q-13 42 -31.5 82t-47.5 80q-60 -34 -113 -79.5
t-104 -102.5l-46 117q65 43 117 70.5t103 44.5l-21 21l-18 19l12 22q23 -7 45 -17t42 -25q29 8 56.5 13.5t53.5 9.5l7 -30q-23 -10 -36 -14.5t-34 -15.5zM219 161q42 -5 79.5 -14.5t71.5 -26.5l-91 -97q-29 9 -63.5 19t-76.5 19z" />
    <glyph glyph-name="comma" unicode="," horiz-adv-x="229" 
d="M63 138q63 -1 147 -41q-93 -84 -161 -260q-13 48 -18.5 83.5t-5.5 63.5q0 35 5.5 70.5t18.5 72.5z" />
    <glyph glyph-name="period" unicode="." horiz-adv-x="269" 
d="M98 158q42 -5 79.5 -14.5t71.5 -26.5l-91 -97q-29 10 -63.5 19.5t-76.5 18.5z" />
    <glyph glyph-name="D" unicode="D" horiz-adv-x="659" 
d="M35 569h-1q9 7 17 12.5t22 13.5q-2 16 -4 34t-3 32l123 27q0 -7 0.5 -22t0.5 -21q10 3 20 6.5t20 6.5l-10 5l10 27q31 -6 63 -17q9 2 18.5 3.5t18.5 3.5l34 7l5 -42q9 -4 17 -8t16 -9h-1q31 -17 53.5 -36t44.5 -42q20 -23 41 -52.5t40 -62.5l3 -6v1q4 -5 7 -9.5t5 -11.5
q11 15 19 25l24 -15l-24 -53q11 -35 21 -82l-115 -40v3q-32 -35 -69 -70.5t-82 -61.5t-100.5 -43.5t-131.5 -19.5q-1 -4 -2.5 -8t-2.5 -7q-2 -2 -3 -5.5t-3 -15.5l-29 3q0 5 0.5 11t0.5 9t0.5 3.5l0.5 0.5v1.5v7.5l-71 4q5 10 11.5 25.5t13 31.5t12.5 31t10 26
q13 -2 17 -2.5t7 -0.5q-1 81 -6 176.5t-15 204.5l-27.5 -11t-29.5 -14l-16 25zM330 600h-5l-4 2zM419 493q-18 27 -40 54t-54 53q-46 -2 -77.5 -6.5t-55.5 -10.5q1 -17 0.5 -32.5t-0.5 -29.5q0 -35 -1 -64t-2.5 -54t-4.5 -47.5t-6 -46.5l-5 -49q-3 -23 -5.5 -44.5
t-7.5 -49.5q77 2 123.5 12t79.5 24q20 8 38 16t36 19.5t36.5 27.5t39.5 40q-20 57 -41.5 100.5t-52.5 87.5z" />
    <glyph glyph-name="exclam" unicode="!" horiz-adv-x="267" 
d="M97 162q42 -5 79.5 -15t71.5 -27l-90 -96q-14 4 -32.5 9.5t-38 10.5t-38 10t-32.5 8zM213 660q-70 -159 -70 -345q0 -13 -0.5 -24t-1 -23.5t-0.5 -30t2 -44.5q-26 37 -44.5 71.5t-30 70t-17 74t-5.5 84.5q0 38 4 81.5t10 94.5z" />
    <glyph glyph-name="B" unicode="B" horiz-adv-x="599" 
d="M65 521l-43 -12l-11 26q11 6 19 12.5t16 11.5q8 6 18 13t23 14l-4 43l120 40q0 -9 -0.5 -18t0.5 -17q22 8 44.5 15.5t45.5 12.5q-1 3 -0.5 2.5t-0.5 1.5q1 -1 -1 0.5t-8 6.5l19 23l22 -17v-1l10 -7q8 2 18 4t18 4q81 -53 130 -161q-11 5 -19 12t-22 9q6 -10 8.5 -18
t5.5 -15q11 -29 14 -49.5t0 -36.5q-3 -14 -8.5 -26t-18.5 -28q23 -24 41.5 -47t34.5 -47l23 19l20 -20q-7 -9 -11.5 -14t-8.5 -10l1 1l-6 -9q6 -12 12.5 -25.5t12.5 -32.5l-50 -26q-10 -9 -25 -16.5t-24 -16.5l-12 5q-18 -27 -32.5 -54t-32.5 -64l-101 14l30 42
q-48 11 -92 21.5t-85 24.5l-3 -10q-2 -8 -2.5 -14t-2.5 -14t-5 -20.5t-9 -31.5l-27 6q1 10 1 20.5v18.5v62q-41 16 -84 39q17 49 46 96q10 -7 20 -12.5t19 -10.5q-1 34 -2.5 67.5t-3.5 68.5t-4.5 72.5t-5.5 79.5zM204 551q-1 -74 -4.5 -125t-9.5 -95q0 -5 -1 -10t-1 -9
q-3 -26 -5.5 -52t-8.5 -55q60 -32 110.5 -56t82.5 -36q23 27 39 41.5t31 28.5l12 9q-11 35 -21.5 63t-21.5 52q-19 -19 -42 -38t-55 -41l-81 89q47 32 71.5 51.5t37.5 33.5q-10 8 -23.5 18.5t-30.5 22.5l15 26q23 -11 36 -17.5t30 -17.5l7 11q8 16 13 31t7 32q1 11 -1 23.5
t-9 27.5q-27 3 -49 3q-19 0 -39 -1t-39 -3z" />
    <glyph glyph-name="C" unicode="C" horiz-adv-x="560" 
d="M50 189q2 45 5 75.5t8 53.5q-12 21 -26.5 49t-28.5 62l24 15l17 -25l29 -41l6 16t5 14q17 35 37 68.5t40 59.5q11 14 24.5 28t34.5 31q-39 11 -75 9l-3 30q25 6 49 7.5t47 1.5h23t23 -1q2 0 4 -0.5t4 -0.5q11 8 24 14t30 14l14 -25l-11 -7q13 -2 27 -4.5t35 -8.5t52 -17
t77 -29q-15 -15 -25.5 -26.5t-17.5 -20t-12 -16t-10 -15.5q-5 -11 -7.5 -14.5t-4 -4.5t-2.5 -1t-3 -3q-30 20 -55 35t-46.5 26t-41 20t-37.5 17q-15 -16 -24.5 -30.5t-17.5 -28.5q-17 -29 -28.5 -58t-19.5 -56q-8 -26 -13 -52t-9 -54q-4 -17 -4 -32q6 -7 13 -13.5t13 -12.5
q26 -23 52 -38.5t62 -28.5q37 -13 90.5 -23.5t125.5 -5.5l-84 -128q-50 15 -86.5 29.5t-63.5 28t-45.5 26.5t-33.5 25q-11 9 -19.5 17t-16.5 16q-76 -2 -116 19z" />
    <glyph glyph-name="A" unicode="A" horiz-adv-x="565" 
d="M24 24l10 55q10 43 21.5 90.5t23.5 85.5q-38 9 -72 26l10 28q24 -6 41.5 -8.5t36.5 -3.5q16 37 34.5 76.5t37.5 77t38.5 72t39.5 61.5q-11 26 -18 40.5t-12 25.5l1 -1q-7 11 -10 20l24 16q11 -14 18 -22t14 -15l19 -20q8 10 14.5 16.5l14.5 14.5q6 6 13.5 12.5t13.5 14.5
l22 -18l-9 -17q-11 -17 -19 -30.5t-19 -36.5q27 -44 52.5 -96.5t45.5 -98.5q7 -17 10.5 -26t10.5 -23q27 5 55.5 10t70.5 8l-51 -111l-32 -2q14 -41 23 -82t14 -65l6 -28l-123 -63q-7 54 -17 118t-23 118q-22 -1 -51 -1.5t-52 -0.5h-33t-28 1q-5 -23 -9.5 -50t-8.5 -55
t-7.5 -55.5t-6.5 -49.5zM332 322q-12 46 -27 93.5t-29 87.5q-19 -45 -38 -98t-33 -102q32 4 64.5 9t62.5 10v0z" />
  </font>
</defs>
</svg>
