<?xml version="1.0" standalone="no"?>
<!DOCTYPE svg PUBLIC "-//W3C//DTD SVG 1.1//EN" "http://www.w3.org/Graphics/SVG/1.1/DTD/svg11.dtd" >
<svg>
<metadata>
Created by FontForge 20120731 at Wed Jun 19 02:06:47 2019
 By www-data
Copyright (c) 2018 by Vladimir Nikolic. All rights reserved.
</metadata>
<defs>
<font id="NightinTokyo-Regular" horiz-adv-x="605" >
  <font-face 
    font-family="Night in Tokyo"
    font-weight="400"
    font-stretch="normal"
    units-per-em="1000"
    panose-1="0 0 0 0 0 0 0 0 0 0"
    ascent="750"
    descent="-250"
    x-height="654"
    cap-height="656"
    bbox="7 -136 780 697"
    underline-thickness="50"
    underline-position="-50"
    unicode-range="U+000D-007A"
  />
<missing-glyph horiz-adv-x="388" 
 />
    <glyph glyph-name=".notdef" horiz-adv-x="388" 
 />
    <glyph glyph-name="NULL" horiz-adv-x="0" 
 />
    <glyph glyph-name="NULL" horiz-adv-x="0" 
 />
    <glyph glyph-name="nonmarkingreturn" unicode="&#xd;" horiz-adv-x="388" 
 />
    <glyph glyph-name="space" unicode=" " horiz-adv-x="401" 
 />
    <glyph glyph-name="e" unicode="e" horiz-adv-x="523" 
d="M50 398q16 2 31.5 3.5t30.5 3.5q9 99 33 202q-30 2 -55 3.5t-40 -0.5q24 7 49.5 12t51.5 10q4 12 7 24.5t7 25.5v-48q45 6 89.5 8.5t83.5 3.5t69 0t45 -2q3 -40 4 -65.5t1 -37.5q-29 16 -55 26t-51 16t-50 9t-53 6q-20 2 -41.5 4t-42.5 4v-95t2 -99v-4q76 4 146 0
t141 -17q-46 -4 -84.5 -7.5t-73 -8.5t-66 -11t-61.5 -14q3 -48 10.5 -103t24.5 -126q45 2 89 2t84 -1.5t73 -4t57 -6.5l-37 -83q-50 12 -89 20.5t-69.5 14.5t-54 10t-43.5 7q2 -9 4.5 -18.5t5.5 -18.5q-16 0 -41 -3.5t-59 -9.5q-2 14 -4.5 29t-4.5 31q-26 2 -50.5 4t-48.5 4
q23 5 47 9t50 6q-5 48 -7 103t1 115l-22 -8t-22 -9q-3 67 -12 84z" />
    <glyph glyph-name="f" unicode="f" horiz-adv-x="485" 
d="M30 397q19 2 37 3.5t36 3.5q5 48 12.5 96.5t19.5 99.5q-35 1 -63.5 0.5t-45.5 -2.5q26 9 55.5 16t59.5 12q4 15 7.5 29.5t8.5 29.5v-28t-1 -28q48 8 95.5 12.5t89 7t73 3.5t47.5 1q5 -40 7.5 -65.5t2.5 -37.5q-32 15 -60.5 23.5t-56 13t-55.5 6.5t-58 3q-20 2 -42 2.5
t-43 1.5v-91t2 -95v-6q69 2 126 -2.5t98 -16.5q-74 -4 -125.5 -10.5t-96.5 -18.5q3 -62 14.5 -140.5t40.5 -184.5q-35 0 -100 -13q-11 61 -16.5 144t-0.5 173q-25 -10 -56 -26q-26 51 -12 84z" />
    <glyph glyph-name="g" unicode="g" 
d="M89 528q-23 -13 -41 -26q-3 51 16 96q15 8 30.5 14t29.5 11q8 14 16 29.5t18 31.5q-4 -17 -7.5 -30t-5.5 -24q57 18 107 26t94 12q29 3 56 4t55 0.5t57 -3.5t63 -8q-59 -6 -105 -12.5t-84 -14.5t-69.5 -17t-62.5 -19q-32 -11 -63.5 -23t-59.5 -25q-1 -6 -1 -12v-13
q-1 -27 0 -67.5t8 -85.5q61 11 102 12.5t77 1.5q43 -1 87.5 -3.5t104.5 -14.5q13 19 28 37t34 35q-8 -20 -15 -40l-14 -40l39 -9q-10 -21 -19 -41.5t-17 -41.5q-8 3 -14.5 5.5t-13.5 5.5q-2 -8 -4 -15.5t-4 -15.5q-8 -28 -14 -64t-11 -64l20 -4t21 -5l-33 -72q-4 2 -8 3
t-8 3v-13t1 -11l-75 -3q-1 11 0 23t3 26q-57 13 -115 18q-16 1 -31.5 1.5t-32.5 -0.5q2 -5 4 -9l4 -8l-80 -48q-13 19 -26 51q-16 -4 -32.5 -8t-35.5 -9q31 20 61 34q-14 38 -25 91.5t-19 106.5q-2 14 -3 27.5t-3 27.5q-10 0 -16.5 -0.5t-13 -0.5t-14.5 -0.5t-20 -0.5
q12 3 19.5 5.5t14 5l13 5t16.5 4.5q-2 37 1.5 81t15.5 87zM263 341q-29 2 -57.5 2.5t-60.5 0.5q8 -42 23 -100t44 -124q27 5 51.5 7t48.5 2q27 1 54 0.5t53 -2.5q5 21 11.5 49.5t14.5 50.5q6 17 12.5 35t14.5 35q-66 23 -115 31.5t-94 12.5z" />
    <glyph glyph-name="h" unicode="h" horiz-adv-x="597" 
d="M76 309q-14 -1 -29.5 -2t-33.5 -3q15 5 31 9.5t33 9.5q1 33 4 70.5t10 79.5t19.5 90.5t32.5 104.5q-2 -52 -1.5 -136.5t8.5 -193.5q67 11 137.5 15t137.5 2q5 79 19 155.5t39 146.5q-6 -69 -5.5 -146t6.5 -159q26 -2 50 -4.5t46 -6.5l-28 -82q-30 10 -62 18
q12 -115 35 -227l-96 -16q-6 60 -8 125t0 134q-54 11 -100 15t-84 6q-45 1 -85 0q5 -60 12.5 -123.5t19.5 -132.5l-90 -37q-10 54 -13.5 115t-4.5 136v37z" />
    <glyph glyph-name="i" unicode="i" horiz-adv-x="220" 
d="M73 35q-6 68 -9.5 144t0 155.5t15.5 160.5t38 161q-2 -51 -1 -116.5t7 -143t18 -165t32 -181.5z" />
    <glyph glyph-name="j" unicode="j" horiz-adv-x="371" 
d="M114 55q9 8 18 15t17 15q-74 40 -123 84l54 80q51 -77 102 -137q14 11 28 23l28 24q-2 112 0 198t6.5 150t11.5 106.5t16 66.5q1 -51 7.5 -115t15.5 -131t19 -130.5t19 -113.5q-34 -28 -62.5 -57t-53.5 -60q10 -11 19.5 -20.5l19.5 -19.5q-14 6 -27 12t-25 12
q-8 -11 -15.5 -21.5t-14.5 -21.5l-60 41v0z" />
    <glyph glyph-name="k" unicode="k" horiz-adv-x="512" 
d="M133 207q12 -64 33 -151q-8 -6 -106 -29l-2 54l-2 54q-9 -7 -18 -13.5t-19 -13.5q10 11 18.5 22.5t17.5 22.5q-2 55 -2.5 113t3.5 121.5t13.5 134t26.5 150.5v-69.5t1 -57t3 -51.5t4 -54q2 -36 6.5 -81t15.5 -109q23 34 43.5 66.5t38.5 64.5q-11 16 -22 29.5t-21 25.5
q26 -17 53 -38q32 58 56 113.5t41 110.5q57 12 114 27q-23 -50 -45 -91.5t-43 -76t-41 -63.5t-40 -56q72 -65 127.5 -141.5t97.5 -161.5q-26 -12 -51.5 -23.5t-51.5 -22.5q-26 103 -64.5 182.5t-77.5 139.5q-2 -2 -2.5 -3t-2.5 -3q-24 -32 -49 -62.5t-53 -59.5z" />
    <glyph glyph-name="l" unicode="l" horiz-adv-x="436" 
d="M112 83q-22 2 -43.5 4.5t-44.5 5.5q21 2 42 5t41 6q-30 119 -41 262.5t2 289.5l106 13q-12 -54 -22.5 -120t-17.5 -139t-9.5 -150t1.5 -153q157 25 292 75l-44 -108q-58 -2 -119 0t-127 8q2 -35 6 -68q-6 17 -11.5 34t-10.5 35z" />
    <glyph glyph-name="m" unicode="m" horiz-adv-x="679" 
d="M297 348q-32 64 -66 115.5t-68 91.5q-10 -68 -15.5 -139t-6.5 -141t1.5 -137t9.5 -127l-105 51q-2 52 3 116.5t17 133.5t30 138.5t42 130.5q-45 46 -87 72q23 -13 46.5 -26.5t46.5 -29.5q10 24 20 45.5t21 41.5q-5 -24 -10 -50t-9 -52q102 -72 187 -167q46 52 89.5 94.5
t80.5 72.5q-5 22 -11 45t-14 49q11 -21 21 -41.5t19 -40.5q16 12 29.5 21.5t24.5 15.5q16 -29 29 -49t22 -31q-18 -9 -36.5 -18t-35.5 -19q44 -120 61 -234t16 -223q-55 -31 -118 -35q11 53 17 99.5t8 88.5t1.5 80t-2.5 74q-2 33 -5.5 65.5t-9.5 67.5q-44 -25 -85 -51.5
t-80 -55.5q30 -35 57 -77l-87 -71q-20 49 -42 93q-14 -13 -28.5 -25t-28.5 -25q13 16 25.5 32t25.5 31z" />
    <glyph glyph-name="n" unicode="n" 
d="M94 18q-32 130 -25 265t49 282q-22 23 -44 44t-43 40q24 -14 47.5 -29.5t46.5 -32.5q13 45 30 90q-5 -28 -8.5 -53t-6.5 -48q91 -67 176 -148.5t160 -172.5q1 81 -5.5 168.5t-23.5 165.5l113 44q-2 -95 -11 -203t-35 -223q37 -49 71 -103l-86 -52q-5 9 -9.5 17.5
t-9.5 16.5q-5 -16 -11 -32t-12 -33q3 17 6 38.5t5 47.5q-75 128 -160.5 239t-170.5 200q-6 -70 -4.5 -124t6.5 -104q7 -70 16.5 -135t26.5 -127l-88 -38v0z" />
    <glyph glyph-name="o" unicode="o" horiz-adv-x="608" 
d="M481 640q23 -1 46 -2.5t48 -4.5q-21 -3 -42 -7t-42 -9q32 -81 41.5 -152t3.5 -146q-4 -45 -12.5 -90t-20.5 -86q33 -3 65 -9l-37 -95q-17 6 -32.5 11t-30.5 10q-8 -12 -15 -21.5t-15 -17.5q4 11 7 22l6 22q-66 17 -117.5 20.5t-94.5 1.5h-12t-11 -1l6 -12t7 -12l-109 -33
q-5 11 -8.5 21.5t-7.5 21.5q-22 -5 -39 -10t-45 -13q25 14 41 24t36 19q-22 66 -28 122.5t-3 112.5q2 35 7 71.5t18 78.5q-8 -4 -15.5 -7.5t-15.5 -7.5q-18 35 -22 74q37 22 61.5 35.5t41.5 21.5q8 14 16 28.5t17 29.5q-13 -28 -20 -52q10 4 19 7t18 5t19 4t23 4
q25 4 60.5 9.5t80.5 8.5q35 20 57 31.5t30 14.5q6 -11 10.5 -21.5t9.5 -21.5zM462 336q-8 63 -24 125.5t-49 129.5q-65 -18 -128.5 -41.5t-127.5 -52.5q-2 -21 -2.5 -42t0.5 -44q1 -56 12 -125t52 -158q44 13 78 16.5t66 4.5q33 2 64.5 1t62.5 -3q6 51 4 97.5t-8 91.5z" />
    <glyph glyph-name="p" unicode="p" horiz-adv-x="566" 
d="M407 288q-52 -9 -110 -15t-121 -5q7 -66 6.5 -119.5t-10.5 -114.5l-103 -2q13 63 21 122t13 118q-20 2 -40 4.5t-40 5.5q2 17 9 40.5t20 55.5q14 -5 27.5 -10t27.5 -10q3 86 -3 171q-29 -6 -47 -10.5l-38 -9.5q12 7 21.5 13t19 11t19.5 10.5t23 10.5q-5 61 -12 118
q11 -29 19 -56t16 -53q72 29 139.5 47.5t116.5 26.5q-4 9 -7.5 18.5t-8.5 20.5q8 -10 15 -19l14 -18q22 3 40 3q33 -41 47 -95q-8 2 -16 3t-16 3q19 -37 28 -67.5t14 -56.5q6 -30 9 -57t3 -55q12 1 24 1.5t25 1.5q-11 -3 -23 -6t-26 -7q0 -26 -3 -56l-97 8q1 8 2 14.5
t2 14.5zM168 341q51 -13 109.5 -20t133.5 -7q7 48 9 82t1.5 58.5t-4 42l-6.5 32.5q-2 7 -3.5 13.5t-3.5 13.5q-63 3 -134.5 -4t-137.5 -18q14 -54 22.5 -102.5t13.5 -90.5z" />
    <glyph glyph-name="q" unicode="q" horiz-adv-x="591" 
d="M132 605q8 14 16 28.5t17 30.5q-6 -14 -11 -27t-9 -26q21 9 37 12.5t42 7.5q25 5 60.5 10t80.5 9q70 39 87 45q6 -11 10.5 -21.5t9.5 -21.5q44 0 94 -6l-42 -8t-42 -9q32 -81 41.5 -151.5t3.5 -145.5q-4 -45 -12.5 -90t-21.5 -86l66 -9l-37 -95q-17 6 -33 11t-31 10
q-7 -12 -14 -21.5t-15 -17.5q4 11 7 21.5t6 21.5q-52 14 -98 19q5 -25 9.5 -42t7.5 -40q-23 8 -47 14t-48 11q2 11 5 23t9 38q-14 1 -26 0.5t-24 -0.5q-6 -1 -12 -1h-11q3 -6 6 -12.5t7 -12.5l-109 -32q-5 11 -8.5 21.5t-7.5 20.5q-11 -2 -18.5 -4t-15.5 -4t-17.5 -5
t-23.5 -7q25 13 36.5 22.5t31.5 18.5q-22 66 -28 122t-4 112q2 36 7.5 72.5t18.5 78.5q-8 -4 -15.5 -7.5t-15.5 -8.5q-18 35 -22 75q37 21 61.5 34.5t41.5 21.5zM379 604q-64 -19 -127.5 -42.5t-127.5 -52.5q-2 -20 -2.5 -41.5t0.5 -44.5q1 -56 12 -125t52 -157
q60 16 107 19q3 15 6.5 31t8.5 34q5 -17 9.5 -32.5t9.5 -30.5h3q64 1 127 -3q6 51 4 97.5t-8 92.5q-8 63 -24 125t-50 130z" />
    <glyph glyph-name="r" unicode="r" horiz-adv-x="611" 
d="M121 553q-4 57 -12 118q11 -29 19 -56t15 -53q73 29 140 47.5t116 26.5q-3 9 -6.5 18t-8.5 20q8 -9 15 -18.5t14 -17.5q22 3 39 3q35 -42 48 -95q-8 2 -16 3t-17 2q20 -36 29 -66.5t14 -57.5q6 -29 9 -56t3 -55q12 1 24 1.5t25 1.5q-11 -3 -23 -6.5t-26 -6.5
q0 -26 -3 -56l-98 8q2 8 3 14.5t2 13.5q-17 -2 -34 -5t-35 -5q81 -88 140 -135.5t84 -57.5q-41 -41 -105 -57q-51 51 -93 112t-77 133q-27 -2 -54.5 -3t-56.5 -1q3 -33 4.5 -62.5t1.5 -57.5t-2.5 -56t-7.5 -58l-103 -2q13 63 21 122t13 118q-20 2 -40.5 4t-40.5 6
q4 31 30 95q14 -5 27.5 -9.5t27.5 -9.5q2 43 0.5 85.5t-3.5 85.5q-30 -6 -56 -12t-47 -11q48 26 101 48zM423 555q-63 3 -134.5 -4t-137.5 -18q14 -54 22.5 -102.5t13.5 -90.5q45 -12 97 -18q-8 17 -14 34.5t-13 35.5q17 -20 32 -38.5t30 -35.5q26 -2 53.5 -3.5t57.5 -1.5
q7 48 9 82t1 58.5t-4.5 42l-6.5 32.5z" />
    <glyph glyph-name="s" unicode="s" horiz-adv-x="606" 
d="M427 105q-42 -30 -71.5 -41.5t-58.5 -16.5q-24 -5 -49.5 -6.5t-55.5 0t-65.5 7t-80.5 16.5l44 75q88 -14 166.5 -8.5t149.5 26.5q-26 57 -48.5 98.5t-42.5 71.5t-37.5 50.5t-33.5 36.5q-13 13 -25 24t-25.5 21.5t-29.5 21t-37 22.5q-55 -23 -103 -52q19 18 39 34.5
t40 31.5q-13 8 -28 16t-32 18q20 -6 38.5 -12t35.5 -11q88 62 181 93.5t180 35.5l21 -108q-104 14 -188 3t-156 -38q52 -20 90.5 -39t67 -38.5t49.5 -38.5t38 -38q42 -45 70 -86.5t45 -73.5q33 16 63 36q-15 -14 -28.5 -27.5t-26.5 -24.5q13 -26 18 -42.5t5 -17.5l-106 -51
l-6 16t-7 16z" />
    <glyph glyph-name="t" unicode="t" horiz-adv-x="542" 
d="M530 514q-54 17 -115 28.5t-123 19.5q13 -68 19.5 -140.5t9 -140t2 -124.5t-1.5 -94l-132 -44q19 64 31.5 135t20.5 142.5t12 140.5t6 129q-78 8 -143.5 11.5t-100.5 5.5q134 35 245 46q1 16 1 30.5v27.5q5 -14 9 -28t8 -29q68 5 128.5 1t117.5 -16z" />
    <glyph glyph-name="u" unicode="u" horiz-adv-x="614" 
d="M462 658q75 13 123 4q-18 -59 -31.5 -122.5t-23.5 -128t-15 -128t-5 -122.5q40 9 70 20q-38 -24 -69 -42q0 -23 1.5 -45.5t3.5 -43.5q-15 39 -27 78q-61 -31 -107 -42.5t-88 -16.5q-51 -6 -101 -6q4 -11 8.5 -23t9.5 -25q-22 25 -40 49q-28 2 -57 5t-61 10q-22 49 -4 91
q15 -5 30.5 -9t31.5 -7q-11 23 -20.5 45.5t-17.5 47.5q-10 31 -17 67t-10 83.5t-0.5 109.5t11.5 145q32 8 64 13t65 7q-23 -81 -33 -147.5t-14 -134.5q-2 -25 -2 -51t2.5 -55.5t8.5 -63.5t18 -74q83 -11 165.5 -7t149.5 16q-32 117 -37.5 241t18.5 262z" />
    <glyph glyph-name="v" unicode="v" horiz-adv-x="570" 
d="M249 266q35 69 72 126.5t75 107t77 92t79 81.5q-59 -84 -101.5 -156t-74 -137t-54 -126t-40.5 -123q6 -29 11 -58t9 -58q-8 23 -15.5 43.5t-14.5 38.5q-5 -18 -9 -36t-7 -35q-47 16 -91 39q13 39 27.5 76.5t31.5 73.5q-9 20 -17.5 38t-18.5 37q-13 26 -27.5 56t-35 65
t-48 76.5t-66.5 91.5q15 23 40 42t54 40q48 -99 82 -197t62 -198z" />
    <glyph glyph-name="w" unicode="w" horiz-adv-x="805" 
d="M570 288q35 89 56 169.5t32 158.5l122 17q-30 -87 -56 -151t-49 -112t-42.5 -82.5t-37.5 -61.5l18 -46t17 -47q-24 -44 -85 -96l-8 48t-9 48q-19 -24 -37 -43.5t-37 -37.5q18 32 34.5 63t30.5 60q-17 85 -39.5 164t-48.5 154q-18 -62 -39.5 -124t-43.5 -116.5t-42 -98
t-33 -68.5q2 -15 2.5 -31t1.5 -33l-8 28t-9 28l-103 31q33 42 63 84q-40 106 -89.5 206.5t-111.5 191.5l93 55q30 -51 54.5 -111t45.5 -126q12 -36 23 -75.5t19 -90.5q51 75 91 148t71 143q-11 32 -23.5 63t-26.5 60q17 -23 32.5 -47t30.5 -48q11 27 21.5 53t19.5 52
q-4 -30 -11 -62.5t-16 -67.5q35 -59 66.5 -121t60.5 -128z" />
    <glyph glyph-name="x" unicode="x" horiz-adv-x="565" 
d="M156 50q-26 -11 -115 -17q30 88 73.5 177.5t103.5 175.5q-39 44 -81 92.5t-89 102.5q24 45 66 80l150 -213q47 59 100.5 111t115.5 97q-54 -58 -99 -119.5t-86 -134.5q64 -91 126.5 -182t124.5 -184q-43 38 -114 113t-170 187q-29 -61 -55.5 -131t-50.5 -155z" />
    <glyph glyph-name="y" unicode="y" horiz-adv-x="539" 
d="M271 349q45 94 109.5 171.5t134.5 133.5q-38 -49 -69.5 -92.5t-56 -88.5t-41.5 -93.5t-26 -106.5q15 -22 30 -43t32 -42q-17 15 -33 29.5t-33 28.5q-9 -82 -3 -191q-57 -27 -118 -24q-2 72 13 141.5t42 135.5q-66 63 -121 129t-99 142q19 22 79 70q35 -79 74.5 -153.5
t85.5 -146.5z" />
    <glyph glyph-name="z" unicode="z" horiz-adv-x="594" 
d="M578 603q-23 2 -45.5 2h-44.5q-83 -118 -160 -245t-134 -252q133 16 226.5 35.5t137.5 34.5l-78 -108q-81 -4 -155.5 -3t-146.5 7q-5 -11 -8.5 -20.5t-8.5 -20.5h-96l24 51q-15 2 -30 4.5t-29 4.5q17 2 33.5 3t32.5 2q41 82 87.5 153.5t95 134t97 117t93.5 102.5
q-205 -5 -379 -58q-7 59 16 111q84 -1 181.5 -7t200.5 -26q14 14 27.5 28t27.5 28q-11 -14 -21.5 -29t-21.5 -30q20 -4 39 -8.5t39 -10.5z" />
    <glyph glyph-name="d" unicode="d" horiz-adv-x="653" 
d="M7 546q12 8 20.5 14.5t16.5 12t17.5 11.5t21.5 12q-2 17 -4 33t-4 33q25 5 49 10.5t49 10.5q0 -13 0.5 -24.5t0.5 -22.5q24 9 49.5 16.5t52.5 14.5q-11 5 -21.5 11t-22.5 11q34 -7 65 -18q15 4 30 6.5t30 5.5l5 -36q11 -5 21 -10l20 -10q31 -17 53.5 -36t44.5 -43
t43.5 -54t39.5 -62q7 -12 13.5 -24t11.5 -26l34 43l-28 -57q14 -36 21 -76l-87 -31l-2 19q-35 -41 -78 -84.5t-101 -77.5q-47 -28 -105.5 -45.5t-139.5 -18.5q-2 -8 -4 -13.5t-4 -10t-4 -10t-4 -13.5q1 16 1.5 23t0.5 24q-32 0 -66 3q19 43 36 87q8 -1 15.5 -1h14.5
q0 92 -5.5 199t-18.5 236q-25 -9 -40 -15t-38 -17zM335 627q-57 -2 -93.5 -7.5t-66.5 -13.5q1 -56 1 -97.5t-2 -75.5t-5 -63.5t-7 -60.5q-5 -38 -10 -80t-13 -87q48 0 84 3t63.5 8t49 12t40.5 15q22 9 41.5 18.5t39.5 23t41.5 32t45.5 45.5q-22 63 -46 112.5t-57 97.5
q-20 30 -45.5 60t-60.5 58z" />
    <glyph glyph-name="one" unicode="1" horiz-adv-x="226" 
d="M126 593q17 14 34 27.5t36 26.5q-15 -20 -31 -42t-33 -48q20 -113 27 -246.5t1 -269.5l-109 -18q20 72 33 136.5t20 126t9 121t1 121.5q-14 -21 -28 -44t-28 -49l-37 53q20 24 42.5 47.5t48.5 46.5l-2 46t-3 47q5 -20 9.5 -40t9.5 -42z" />
    <glyph glyph-name="two" unicode="2" horiz-adv-x="597" 
d="M522 385q14 4 28 7.5t28 8.5q-14 -6 -27 -11.5t-26 -10.5q4 -8 8 -15t8 -15l-113 -41q-2 5 -2.5 10.5t-2.5 11.5q-33 -18 -58 -38t-46.5 -43t-41.5 -50t-44 -60q100 8 174 -3t115 -30l-73 -79q-64 22 -127.5 36.5t-124.5 22.5q-9 -15 -18.5 -30.5t-18.5 -32.5l-105 13
q10 16 19.5 30.5t19.5 28.5q-13 1 -22 1.5t-17 1.5t-16.5 1t-19.5 -1q15 4 26.5 7.5t22 6.5t21.5 5.5t25 4.5q34 44 66 78.5t67.5 62t76.5 49t94 40.5q-14 63 -38.5 122t-68.5 116q-130 -72 -226 -182l-34 88q66 44 124 73t114 47q-24 29 -52 54q41 -12 85 -44q58 17 116 24
q-24 -10 -47 -20t-45 -21q44 -36 89 -91.5t87 -132.5z" />
    <glyph glyph-name="three" unicode="3" horiz-adv-x="542" 
d="M440 372q28 -20 60 -42l-60 -77q-9 12 -17.5 22t-17.5 21q-26 -50 -56 -93.5t-62 -78.5q20 -5 35 -7.5t26 -3.5l-47 -78q-19 8 -36 16l-34 16q-9 -8 -17.5 -14.5t-16.5 -14.5l-85 60l39 21q-42 31 -71 63.5t-47 59.5q41 -29 84.5 -52.5t85.5 -39.5q51 35 93.5 77t82.5 96
q-22 23 -46.5 42.5t-49.5 35.5q-5 -8 -8.5 -17.5t-8.5 -19.5l-80 27q9 11 17 22.5t17 23.5q-26 13 -53.5 22t-54.5 17v1q68 -2 126 -18q36 45 75 85t81 78q-147 -18 -327 -69l50 89q10 0 38 0.5t68 -0.5t89 -2t100 -4q16 13 29.5 24t31.5 25q-12 -14 -21 -25.5t-20 -24.5
q17 -1 34.5 -2t35.5 -3q-20 -1 -39 -2t-39 -3q-38 -49 -68.5 -94.5t-54.5 -90.5q32 -11 61.5 -25.5t58.5 -31.5q21 27 41 61q-5 -19 -10.5 -37t-11.5 -35z" />
    <glyph glyph-name="four" unicode="4" horiz-adv-x="606" 
d="M468 317q31 1 59.5 -0.5t56.5 -4.5l-25 -104q-19 3 -36.5 6t-34.5 5q8 -51 8.5 -89.5t-4.5 -58.5l-123 -43q15 63 26 111.5t18 89.5q-74 8 -142 7.5t-144 -8.5q-17 -14 -35 -28.5t-36 -28.5q12 13 24.5 27t23.5 28q-20 -3 -40.5 -6t-43.5 -7q27 10 52.5 19t50.5 17
q67 84 127.5 184.5t121.5 222.5l134 22q-45 -85 -130 -194.5t-211 -222.5q75 23 139.5 36t121.5 18q3 35 2.5 65.5t-3.5 62.5q14 -32 24.5 -63.5t18.5 -62.5z" />
    <glyph glyph-name="five" unicode="5" horiz-adv-x="551" 
d="M491 214q0 -35 -8 -72q13 -2 25 -4.5t25 -4.5l-23 -94q-22 12 -57 22q-7 -14 -15 -25t-17 -18q-40 43 -73 64q-64 7 -142 2.5t-166 -29.5q28 22 66.5 39t84 29t96 18t101.5 6q14 26 21 59.5t3 67.5q-3 28 -14.5 57.5t-37.5 71.5q-107 7 -175 3v-29t1 -30
q-6 14 -10.5 28.5t-9.5 29.5q-66 -6 -113 -18q28 13 54.5 24t52.5 21q-15 66 -18 158q-27 1 -54 0.5t-52 -2.5q52 14 105 23q-1 14 -1 29.5t-1 32.5l94 -3q-9 -21 -15 -44q50 7 95.5 12.5t82 8.5t61 4t33.5 0l-22 -85q-67 9 -132 15t-129 8q-16 -70 -21 -148q35 11 66 19.5
t60 13.5q-8 13 -17.5 25.5t-19.5 26.5q16 -12 29 -24.5t26 -23.5q45 8 82.5 10.5t69.5 1.5l-32 -93q-10 1 -20 1.5t-20 1.5q25 -29 41 -53.5t25 -47t12 -43.5t3 -42z" />
    <glyph glyph-name="six" unicode="6" horiz-adv-x="618" 
d="M558 161q7 -1 14 -1.5t13 -0.5q5 -32 6 -56t-1 -43q-9 4 -18.5 7t-18.5 6q-3 -21 -9 -44l-90 29q2 8 4 16.5t4 16.5q-121 14 -260 -15q3 -15 7 -27l-88 -28l-7.5 15t-6.5 15q-11 -4 -22 -7t-22 -7q10 7 19.5 13.5t20.5 11.5q-24 65 -29 128.5t1 128.5l2 24t3 23
q-12 -3 -19 -5.5l-14 -5t-15 -5.5t-21 -6q13 9 21.5 17t16 16t17 15t23.5 15q8 28 19 57.5t32.5 62.5t56.5 71.5t92 85.5q-35 -49 -55 -84.5t-31.5 -63t-17 -49t-10.5 -43.5q103 38 219 56q-9 11 -19.5 23t-22.5 25q15 -10 30 -21.5t29 -25.5q14 2 28 3.5t28 3.5l68 -102
q-14 1 -26.5 1.5t-25.5 1.5q32 -55 51.5 -118.5t23.5 -129.5zM194 105q71 26 144 40t137 16q8 69 1 118t-18 87q-4 12 -7 23t-8 21q-83 2 -149.5 -4.5t-129.5 -19.5q-3 -24 -3 -51.5t3 -61t10 -75t20 -93.5z" />
    <glyph glyph-name="seven" unicode="7" horiz-adv-x="566" 
d="M550 626q-23 -8 -47 -14t-47 -12q-22 -28 -38.5 -57t-31 -59.5t-28.5 -61.5t-31 -62q45 2 92 -3l-34 -52q-45 4 -84 6q-42 -78 -76 -154t-61 -144q-93 29 -110 39q44 85 80 149.5t66 114.5q-32 1 -58.5 0.5t-49.5 -2.5q32 12 64.5 20.5t64.5 14.5q37 50 57.5 80.5
t36.5 54t34.5 46.5t51.5 57q-50 -11 -95 -20t-89 -16t-90 -12t-97 -8l32 98q12 -2 47.5 -4.5t86.5 -4.5t113.5 -2t130.5 2q46 38 88 63q-14 -15 -27.5 -30t-27.5 -32q20 1 39 2t38 3z" />
    <glyph glyph-name="eight" unicode="8" horiz-adv-x="655" 
d="M626 56q-12 -2 -26 -3t-29 -2q-2 -8 -3.5 -17t-3.5 -17v34q-74 -1 -174 20t-217 70q-7 -20 -14 -41l-15 -45q-30 12 -55.5 28t-49.5 37q12 40 25 71q-9 4 -14 7.5t-9.5 7t-9.5 7.5t-14 9q10 -5 15.5 -7.5t10 -5t10 -5t14.5 -5.5q28 66 63 115t79 96q26 29 56.5 58
t72.5 59q-11 9 -23 18.5t-25 19.5q-19 -11 -36 -24.5t-34 -27.5l-65 64q17 11 32.5 19.5t32.5 16.5q-11 7 -22 13.5t-22 14.5q14 12 34.5 23t48.5 20q14 -10 27 -19.5t25 -18.5q64 16 123.5 14.5t110.5 -17.5q17 8 36 16t39 16q-17 -11 -31.5 -20t-28.5 -17q15 -4 31 -12
q-24 3 -46 3q-38 -23 -65 -42t-53 -41q23 -24 40.5 -46.5t30 -44t22.5 -42.5t18 -43q18 -48 30 -99.5t12 -112.5zM366 602q10 -9 19 -17t17 -16q25 15 52.5 30t59.5 30q-80 -3 -148 -27zM181 163q121 -30 215.5 -28t162.5 18q-4 36 -10.5 64t-15.5 52t-20.5 45t-24.5 42
q-20 32 -46.5 66.5t-67.5 72.5q-27 -29 -52.5 -62t-48.5 -69q-24 -39 -45.5 -85t-46.5 -116z" />
    <glyph glyph-name="nine" unicode="9" horiz-adv-x="508" 
d="M433 579q14 -6 26.5 -12.5t25.5 -13.5q-12 2 -23.5 3t-23.5 3q22 -89 13.5 -161t-29.5 -132q-3 -11 -6.5 -20.5t-7.5 -19.5q10 -10 19.5 -20.5t18.5 -21.5q-11 7 -22.5 13.5t-22.5 12.5q-26 -54 -65 -99t-105 -90l-75 76q66 42 107 78t67 69q-42 19 -82.5 31.5
t-79.5 20.5q3 -12 7 -23.5t9 -23.5l-96 4q-2 14 -4 27.5t-4 27.5q-15 2 -30 2h-30l5 72q14 1 27 1.5t27 -0.5q2 38 11.5 79t26.5 87q-32 -4 -49 -9l4 83q39 7 80 9l26 52q-4 -14 -8 -26.5t-7 -25.5q66 1 132 -12t125 -36l-4 28t-6 30q8 -17 13 -32.5t10 -30.5zM393 360
q8 22 15 43t11 45t5 51t-2 61q-37 3 -75 3.5t-74 -0.5t-68.5 -4t-59.5 -6q-5 -42 -4.5 -86t9.5 -94q54 -14 105.5 -40t96.5 -59q14 23 23.5 44.5t17.5 41.5z" />
    <glyph glyph-name="question" unicode="?" horiz-adv-x="575" 
d="M486 419q15 2 31.5 3t33.5 3q-14 -6 -27.5 -12.5t-26.5 -12.5q5 -10 10 -19t10 -19l-113 -41q-2 6 -3 12l-2 12q-23 -15 -42.5 -32.5t-35 -36t-27.5 -37t-21 -33.5l-119 10l5.5 16.5t10 24t16.5 28.5t25 30q10 10 24 22t34 23t48 22t68 20q-15 53 -38 103t-60 98
q-66 -37 -122 -82t-104 -99l-34 87q66 44 124 73t114 47q-11 14 -24.5 27t-27.5 27q20 -6 41.5 -16.5t43.5 -27.5q58 17 116 24q-24 -10 -47 -20t-45 -21q41 -34 82.5 -84t81.5 -119zM221 135q80 -9 126 -31l-73 -78q-28 9 -56.5 17t-57.5 15z" />
    <glyph glyph-name="exclam" unicode="!" horiz-adv-x="245" 
d="M101 136q80 -9 126 -31l-73 -78q-29 9 -57 17t-57 15zM193 659q-82 -185 -61 -453q-105 150 -62 461z" />
    <glyph glyph-name="zero" unicode="0" horiz-adv-x="608" 
d="M481 640q23 -1 46 -2.5t48 -4.5q-21 -3 -42 -7t-42 -9q32 -81 41.5 -152t3.5 -146q-4 -45 -12.5 -90t-20.5 -86q33 -3 65 -9l-37 -95q-17 6 -32.5 11t-30.5 10q-8 -12 -15 -21.5t-15 -17.5q4 11 7 22l6 22q-66 17 -117.5 20.5t-94.5 1.5h-12t-11 -1l6 -12t7 -12l-109 -33
q-5 11 -8.5 21.5t-7.5 21.5q-22 -5 -39 -10t-45 -13q25 14 41 24t36 19q-22 66 -28 122.5t-3 112.5q2 35 7 71.5t18 78.5q-8 -4 -15.5 -7.5t-15.5 -7.5q-18 35 -22 74q37 22 61.5 35.5t41.5 21.5q8 14 16 28.5t17 29.5q-13 -28 -20 -52q10 4 19 7t18 5t19 4t23 4
q25 4 60.5 9.5t80.5 8.5q35 20 57 31.5t30 14.5q6 -11 10.5 -21.5t9.5 -21.5zM462 336q-8 63 -24 125.5t-49 129.5q-65 -18 -128.5 -41.5t-127.5 -52.5q-2 -21 -2.5 -42t0.5 -44q1 -56 12 -125t52 -158q44 13 78 16.5t66 4.5q33 2 64.5 1t62.5 -3q6 51 4 97.5t-8 91.5z" />
    <glyph glyph-name="comma" unicode="," horiz-adv-x="217" 
d="M63 112q65 -1 126 -31q-82 -74 -138 -217q-31 121 12 248z" />
    <glyph glyph-name="period" unicode="." horiz-adv-x="248" 
d="M97 130q80 -9 126 -31l-73 -78q-28 9 -56.5 17t-57.5 15z" />
    <glyph glyph-name="colon" unicode=":" horiz-adv-x="251" 
d="M97 130q80 -9 126 -31l-73 -78q-28 9 -56.5 17t-57.5 15zM94 664q80 -9 126 -31l-73 -78q-28 9 -56.5 17t-57.5 15z" />
    <glyph glyph-name="semicolon" unicode=";" horiz-adv-x="251" 
d="M94 664q80 -9 126 -31l-73 -78q-28 9 -56.5 17t-57.5 15zM75 112q65 -1 126 -31q-82 -74 -138 -217q-31 121 12 248z" />
    <glyph glyph-name="A" unicode="A" horiz-adv-x="573" 
d="M37 26q6 27 12.5 58.5t14 64t16.5 62.5t18 53q-26 5 -47 11t-39 15q23 -5 46 -7.5t46 -3.5q18 41 37.5 84t40.5 84t42.5 78t44.5 67q-8 20 -14 34.5t-11.5 25t-9.5 18.5l-8 16q18 -23 32 -35.5t30 -34.5q10 12 18 21t16 17t16.5 16t17.5 18q-8 -13 -15 -23.5t-13 -21.5
t-12 -23t-13 -27q21 -32 40 -68.5t36 -72.5t31.5 -69.5t27.5 -60.5q32 6 63.5 11t60.5 7l-38 -82q-15 -1 -29 -1t-28 -1q11 -27 19.5 -57t15 -57t10.5 -47.5t6 -28.5l-100 -51q-6 55 -17 120t-25 120q-24 -1 -50.5 -1.5t-52.5 -1t-49.5 0t-42.5 1.5q-5 -22 -10 -50.5
t-9 -58.5t-8 -59.5t-7 -53.5zM284 551q-12 -27 -25 -60t-26 -68.5t-25 -71t-20 -68.5q19 2 41.5 5t45.5 6t45.5 7t40.5 7q-8 30 -18 63t-20 65t-20 62t-19 53z" />
    <glyph glyph-name="B" unicode="B" horiz-adv-x="599" 
d="M102 556q-12 -3 -21 -5.5t-18.5 -5.5t-20.5 -6t-26 -7q13 8 23 15.5t19 14t19 13t23 12.5l-2 22l-2 22l94 32v-19.5t1 -18.5q64 25 133 40q-5 6 -7 9.5t-3.5 7t-4 7t-7.5 8.5q7 -5 12 -8.5t8.5 -6.5l7 -6t9.5 -7q10 2 19.5 4t19.5 4q76 -49 106 -117q-12 5 -24 9.5
t-26 7.5q17 -22 26 -39t14 -31q11 -30 14 -47.5t-1 -32.5q-3 -14 -11 -28t-23 -32q61 -60 98 -123q10 9 15.5 13.5t19.5 17.5q-6 -7 -10 -12t-7 -9l-6 -8t-8 -10q14 -25 25 -55l-43 -22l-40 -38q-2 8 -4.5 15.5t-4.5 15.5q-24 -34 -43.5 -68t-38.5 -74l-70 11q16 24 30 42
q-63 14 -119 27.5t-104 30.5q-3 -14 -5.5 -26l-5 -24t-5.5 -25.5t-8 -31.5q1 16 1.5 29t0 26t-0.5 27.5v32.5q-44 16 -84 38q13 37 34 71q13 -8 25.5 -15t25.5 -14q-2 79 -6.5 165t-12.5 182zM191 574q0 -43 -1 -76.5t-3 -62t-4.5 -53.5t-5.5 -50q-4 -32 -8 -66t-12 -76
q73 -40 132 -67.5t93 -39.5q25 30 44 48t36 33q5 4 9 8t9 8q-14 47 -29 85t-29 67q-19 -20 -45 -43t-59 -46l-63 69q47 33 73 55t40 38q-24 24 -68 54q23 -11 42 -21t36 -21q10 13 16 25q10 19 15.5 36.5t7.5 35.5q1 15 -2.5 31.5t-14.5 38.5q-35 5 -71.5 4t-71.5 -5z" />
    <glyph glyph-name="C" unicode="C" horiz-adv-x="540" 
d="M57 181q2 46 5.5 79t8.5 59q-12 22 -28 53t-30 64q17 -25 34 -49.5t30 -41.5q5 17 9.5 31.5t10.5 28.5q17 37 37 69t41 60q14 19 31.5 36.5t53.5 41.5q-63 21 -111 20q23 5 47.5 6.5t47.5 1.5q15 0 29 -0.5t31 -1.5q12 8 26 15.5t31 15.5q-12 -8 -22.5 -16t-19.5 -16
q6 0 12.5 -0.5t14.5 -1.5q15 -2 29.5 -3.5t34.5 -6.5t48.5 -15t72.5 -28q-21 -20 -33 -37.5t-28 -40.5q-30 20 -55.5 35t-48 26.5t-43 20.5t-41.5 18q-20 -20 -32 -37.5t-22 -34.5q-17 -30 -29.5 -61.5t-21.5 -61.5q-9 -29 -14.5 -56.5t-9.5 -55.5q-2 -11 -3 -21.5t-1 -21.5
q15 -18 32 -33q29 -26 56.5 -42.5t67.5 -30.5t91.5 -25.5t108.5 -7.5l-63 -98q-47 14 -82.5 28t-61.5 27.5t-45 27t-34 25.5q-22 18 -38.5 35t-31.5 37q1 -8 1.5 -16.5t2.5 -17.5q-59 -2 -96 18z" />
    <glyph glyph-name="D" unicode="D" horiz-adv-x="653" 
d="M7 546q12 8 20.5 14.5t16.5 12t17.5 11.5t21.5 12q-2 17 -4 33t-4 33q25 5 49 10.5t49 10.5q0 -13 0.5 -24.5t0.5 -22.5q24 9 49.5 16.5t52.5 14.5q-11 5 -21.5 11t-22.5 11q34 -7 65 -18q15 4 30 6.5t30 5.5l5 -36q11 -5 21 -10l20 -10q31 -17 53.5 -36t44.5 -43
t43.5 -54t39.5 -62q7 -12 13.5 -24t11.5 -26l34 43l-28 -57q14 -36 21 -76l-87 -31l-2 19q-35 -41 -78 -84.5t-101 -77.5q-47 -28 -105.5 -45.5t-139.5 -18.5q-2 -8 -4 -13.5t-4 -10t-4 -10t-4 -13.5q1 16 1.5 23t0.5 24q-32 0 -66 3q19 43 36 87q8 -1 15.5 -1h14.5
q0 92 -5.5 199t-18.5 236q-25 -9 -40 -15t-38 -17zM335 627q-57 -2 -93.5 -7.5t-66.5 -13.5q1 -56 1 -97.5t-2 -75.5t-5 -63.5t-7 -60.5q-5 -38 -10 -80t-13 -87q48 0 84 3t63.5 8t49 12t40.5 15q22 9 41.5 18.5t39.5 23t41.5 32t45.5 45.5q-22 63 -46 112.5t-57 97.5
q-20 30 -45.5 60t-60.5 58z" />
    <glyph glyph-name="E" unicode="E" horiz-adv-x="523" 
d="M50 398q16 2 31.5 3.5t30.5 3.5q9 99 33 202q-30 2 -55 3.5t-40 -0.5q24 7 49.5 12t51.5 10q4 12 7 24.5t7 25.5v-48q45 6 89.5 8.5t83.5 3.5t69 0t45 -2q3 -40 4 -65.5t1 -37.5q-29 16 -55 26t-51 16t-50 9t-53 6q-20 2 -41.5 4t-42.5 4v-95t2 -99v-4q76 4 146 0
t141 -17q-46 -4 -84.5 -7.5t-73 -8.5t-66 -11t-61.5 -14q3 -48 10.5 -103t24.5 -126q45 2 89 2t84 -1.5t73 -4t57 -6.5l-37 -83q-50 12 -89 20.5t-69.5 14.5t-54 10t-43.5 7q2 -9 4.5 -18.5t5.5 -18.5q-16 0 -41 -3.5t-59 -9.5q-2 14 -4.5 29t-4.5 31q-26 2 -50.5 4t-48.5 4
q23 5 47 9t50 6q-5 48 -7 103t1 115l-22 -8t-22 -9q-3 67 -12 84z" />
    <glyph glyph-name="F" unicode="F" horiz-adv-x="485" 
d="M30 397q19 2 37 3.5t36 3.5q5 48 12.5 96.5t19.5 99.5q-35 1 -63.5 0.5t-45.5 -2.5q26 9 55.5 16t59.5 12q4 15 7.5 29.5t8.5 29.5v-28t-1 -28q48 8 95.5 12.5t89 7t73 3.5t47.5 1q5 -40 7.5 -65.5t2.5 -37.5q-32 15 -60.5 23.5t-56 13t-55.5 6.5t-58 3q-20 2 -42 2.5
t-43 1.5v-91t2 -95v-6q69 2 126 -2.5t98 -16.5q-74 -4 -125.5 -10.5t-96.5 -18.5q3 -62 14.5 -140.5t40.5 -184.5q-35 0 -100 -13q-11 61 -16.5 144t-0.5 173q-25 -10 -56 -26q-26 51 -12 84z" />
    <glyph glyph-name="G" unicode="G" 
d="M89 528q-23 -13 -41 -26q-3 51 16 96q15 8 30.5 14t29.5 11q8 14 16 29.5t18 31.5q-4 -17 -7.5 -30t-5.5 -24q57 18 107 26t94 12q29 3 56 4t55 0.5t57 -3.5t63 -8q-59 -6 -105 -12.5t-84 -14.5t-69.5 -17t-62.5 -19q-32 -11 -63.5 -23t-59.5 -25q-1 -6 -1 -12v-13
q-1 -27 0 -67.5t8 -85.5q61 11 102 12.5t77 1.5q43 -1 87.5 -3.5t104.5 -14.5q13 19 28 37t34 35q-8 -20 -15 -40l-14 -40l39 -9q-10 -21 -19 -41.5t-17 -41.5q-8 3 -14.5 5.5t-13.5 5.5q-2 -8 -4 -15.5t-4 -15.5q-8 -28 -14 -64t-11 -64l20 -4t21 -5l-33 -72q-4 2 -8 3
t-8 3v-13t1 -11l-75 -3q-1 11 0 23t3 26q-57 13 -115 18q-16 1 -31.5 1.5t-32.5 -0.5q2 -5 4 -9l4 -8l-80 -48q-13 19 -26 51q-16 -4 -32.5 -8t-35.5 -9q31 20 61 34q-14 38 -25 91.5t-19 106.5q-2 14 -3 27.5t-3 27.5q-10 0 -16.5 -0.5t-13 -0.5t-14.5 -0.5t-20 -0.5
q12 3 19.5 5.5t14 5l13 5t16.5 4.5q-2 37 1.5 81t15.5 87zM263 341q-29 2 -57.5 2.5t-60.5 0.5q8 -42 23 -100t44 -124q27 5 51.5 7t48.5 2q27 1 54 0.5t53 -2.5q5 21 11.5 49.5t14.5 50.5q6 17 12.5 35t14.5 35q-66 23 -115 31.5t-94 12.5z" />
    <glyph glyph-name="H" unicode="H" horiz-adv-x="597" 
d="M76 309q-14 -1 -29.5 -2t-33.5 -3q15 5 31 9.5t33 9.5q1 33 4 70.5t10 79.5t19.5 90.5t32.5 104.5q-2 -52 -1.5 -136.5t8.5 -193.5q67 11 137.5 15t137.5 2q5 79 19 155.5t39 146.5q-6 -69 -5.5 -146t6.5 -159q26 -2 50 -4.5t46 -6.5l-28 -82q-30 10 -62 18
q12 -115 35 -227l-96 -16q-6 60 -8 125t0 134q-54 11 -100 15t-84 6q-45 1 -85 0q5 -60 12.5 -123.5t19.5 -132.5l-90 -37q-10 54 -13.5 115t-4.5 136v37z" />
    <glyph glyph-name="J" unicode="J" horiz-adv-x="371" 
d="M114 55q9 8 18 15t17 15q-74 40 -123 84l54 80q51 -77 102 -137q14 11 28 23l28 24q-2 112 0 198t6.5 150t11.5 106.5t16 66.5q1 -51 7.5 -115t15.5 -131t19 -130.5t19 -113.5q-34 -28 -62.5 -57t-53.5 -60q10 -11 19.5 -20.5l19.5 -19.5q-14 6 -27 12t-25 12
q-8 -11 -15.5 -21.5t-14.5 -21.5l-60 41v0z" />
    <glyph glyph-name="K" unicode="K" horiz-adv-x="512" 
d="M133 207q12 -64 33 -151q-8 -6 -106 -29l-2 54l-2 54q-9 -7 -18 -13.5t-19 -13.5q10 11 18.5 22.5t17.5 22.5q-2 55 -2.5 113t3.5 121.5t13.5 134t26.5 150.5v-69.5t1 -57t3 -51.5t4 -54q2 -36 6.5 -81t15.5 -109q23 34 43.5 66.5t38.5 64.5q-11 16 -22 29.5t-21 25.5
q26 -17 53 -38q32 58 56 113.5t41 110.5q57 12 114 27q-23 -50 -45 -91.5t-43 -76t-41 -63.5t-40 -56q72 -65 127.5 -141.5t97.5 -161.5q-26 -12 -51.5 -23.5t-51.5 -22.5q-26 103 -64.5 182.5t-77.5 139.5q-2 -2 -2.5 -3t-2.5 -3q-24 -32 -49 -62.5t-53 -59.5z" />
    <glyph glyph-name="L" unicode="L" horiz-adv-x="436" 
d="M112 83q-22 2 -43.5 4.5t-44.5 5.5q21 2 42 5t41 6q-30 119 -41 262.5t2 289.5l106 13q-12 -54 -22.5 -120t-17.5 -139t-9.5 -150t1.5 -153q157 25 292 75l-44 -108q-58 -2 -119 0t-127 8q2 -35 6 -68q-6 17 -11.5 34t-10.5 35z" />
    <glyph glyph-name="M" unicode="M" horiz-adv-x="679" 
d="M297 348q-32 64 -66 115.5t-68 91.5q-10 -68 -15.5 -139t-6.5 -141t1.5 -137t9.5 -127l-105 51q-2 52 3 116.5t17 133.5t30 138.5t42 130.5q-45 46 -87 72q23 -13 46.5 -26.5t46.5 -29.5q10 24 20 45.5t21 41.5q-5 -24 -10 -50t-9 -52q102 -72 187 -167q46 52 89.5 94.5
t80.5 72.5q-5 22 -11 45t-14 49q11 -21 21 -41.5t19 -40.5q16 12 29.5 21.5t24.5 15.5q16 -29 29 -49t22 -31q-18 -9 -36.5 -18t-35.5 -19q44 -120 61 -234t16 -223q-55 -31 -118 -35q11 53 17 99.5t8 88.5t1.5 80t-2.5 74q-2 33 -5.5 65.5t-9.5 67.5q-44 -25 -85 -51.5
t-80 -55.5q30 -35 57 -77l-87 -71q-20 49 -42 93q-14 -13 -28.5 -25t-28.5 -25q13 16 25.5 32t25.5 31z" />
    <glyph glyph-name="N" unicode="N" 
d="M94 18q-32 130 -25 265t49 282q-22 23 -44 44t-43 40q24 -14 47.5 -29.5t46.5 -32.5q13 45 30 90q-5 -28 -8.5 -53t-6.5 -48q91 -67 176 -148.5t160 -172.5q1 81 -5.5 168.5t-23.5 165.5l113 44q-2 -95 -11 -203t-35 -223q37 -49 71 -103l-86 -52q-5 9 -9.5 17.5
t-9.5 16.5q-5 -16 -11 -32t-12 -33q3 17 6 38.5t5 47.5q-75 128 -160.5 239t-170.5 200q-6 -70 -4.5 -124t6.5 -104q7 -70 16.5 -135t26.5 -127l-88 -38v0z" />
    <glyph glyph-name="O" unicode="O" horiz-adv-x="608" 
d="M481 640q23 -1 46 -2.5t48 -4.5q-21 -3 -42 -7t-42 -9q32 -81 41.5 -152t3.5 -146q-4 -45 -12.5 -90t-20.5 -86q33 -3 65 -9l-37 -95q-17 6 -32.5 11t-30.5 10q-8 -12 -15 -21.5t-15 -17.5q4 11 7 22l6 22q-66 17 -117.5 20.5t-94.5 1.5h-12t-11 -1l6 -12t7 -12l-109 -33
q-5 11 -8.5 21.5t-7.5 21.5q-22 -5 -39 -10t-45 -13q25 14 41 24t36 19q-22 66 -28 122.5t-3 112.5q2 35 7 71.5t18 78.5q-8 -4 -15.5 -7.5t-15.5 -7.5q-18 35 -22 74q37 22 61.5 35.5t41.5 21.5q8 14 16 28.5t17 29.5q-13 -28 -20 -52q10 4 19 7t18 5t19 4t23 4
q25 4 60.5 9.5t80.5 8.5q35 20 57 31.5t30 14.5q6 -11 10.5 -21.5t9.5 -21.5zM462 336q-8 63 -24 125.5t-49 129.5q-65 -18 -128.5 -41.5t-127.5 -52.5q-2 -21 -2.5 -42t0.5 -44q1 -56 12 -125t52 -158q44 13 78 16.5t66 4.5q33 2 64.5 1t62.5 -3q6 51 4 97.5t-8 91.5z" />
    <glyph glyph-name="P" unicode="P" horiz-adv-x="566" 
d="M407 288q-52 -9 -110 -15t-121 -5q7 -66 6.5 -119.5t-10.5 -114.5l-103 -2q13 63 21 122t13 118q-20 2 -40 4.5t-40 5.5q2 17 9 40.5t20 55.5q14 -5 27.5 -10t27.5 -10q3 86 -3 171q-29 -6 -47 -10.5l-38 -9.5q12 7 21.5 13t19 11t19.5 10.5t23 10.5q-5 61 -12 118
q11 -29 19 -56t16 -53q72 29 139.5 47.5t116.5 26.5q-4 9 -7.5 18.5t-8.5 20.5q8 -10 15 -19l14 -18q22 3 40 3q33 -41 47 -95q-8 2 -16 3t-16 3q19 -37 28 -67.5t14 -56.5q6 -30 9 -57t3 -55q12 1 24 1.5t25 1.5q-11 -3 -23 -6t-26 -7q0 -26 -3 -56l-97 8q1 8 2 14.5
t2 14.5zM168 341q51 -13 109.5 -20t133.5 -7q7 48 9 82t1.5 58.5t-4 42l-6.5 32.5q-2 7 -3.5 13.5t-3.5 13.5q-63 3 -134.5 -4t-137.5 -18q14 -54 22.5 -102.5t13.5 -90.5z" />
    <glyph glyph-name="Q" unicode="Q" horiz-adv-x="591" 
d="M132 605q8 14 16 28.5t17 30.5q-6 -14 -11 -27t-9 -26q21 9 37 12.5t42 7.5q25 5 60.5 10t80.5 9q70 39 87 45q6 -11 10.5 -21.5t9.5 -21.5q44 0 94 -6l-42 -8t-42 -9q32 -81 41.5 -151.5t3.5 -145.5q-4 -45 -12.5 -90t-21.5 -86l66 -9l-37 -95q-17 6 -33 11t-31 10
q-7 -12 -14 -21.5t-15 -17.5q4 11 7 21.5t6 21.5q-52 14 -98 19q5 -25 9.5 -42t7.5 -40q-23 8 -47 14t-48 11q2 11 5 23t9 38q-14 1 -26 0.5t-24 -0.5q-6 -1 -12 -1h-11q3 -6 6 -12.5t7 -12.5l-109 -32q-5 11 -8.5 21.5t-7.5 20.5q-11 -2 -18.5 -4t-15.5 -4t-17.5 -5
t-23.5 -7q25 13 36.5 22.5t31.5 18.5q-22 66 -28 122t-4 112q2 36 7.5 72.5t18.5 78.5q-8 -4 -15.5 -7.5t-15.5 -8.5q-18 35 -22 75q37 21 61.5 34.5t41.5 21.5zM379 604q-64 -19 -127.5 -42.5t-127.5 -52.5q-2 -20 -2.5 -41.5t0.5 -44.5q1 -56 12 -125t52 -157
q60 16 107 19q3 15 6.5 31t8.5 34q5 -17 9.5 -32.5t9.5 -30.5h3q64 1 127 -3q6 51 4 97.5t-8 92.5q-8 63 -24 125t-50 130z" />
    <glyph glyph-name="R" unicode="R" horiz-adv-x="611" 
d="M121 553q-4 57 -12 118q11 -29 19 -56t15 -53q73 29 140 47.5t116 26.5q-3 9 -6.5 18t-8.5 20q8 -9 15 -18.5t14 -17.5q22 3 39 3q35 -42 48 -95q-8 2 -16 3t-17 2q20 -36 29 -66.5t14 -57.5q6 -29 9 -56t3 -55q12 1 24 1.5t25 1.5q-11 -3 -23 -6.5t-26 -6.5
q0 -26 -3 -56l-98 8q2 8 3 14.5t2 13.5q-17 -2 -34 -5t-35 -5q81 -88 140 -135.5t84 -57.5q-41 -41 -105 -57q-51 51 -93 112t-77 133q-27 -2 -54.5 -3t-56.5 -1q3 -33 4.5 -62.5t1.5 -57.5t-2.5 -56t-7.5 -58l-103 -2q13 63 21 122t13 118q-20 2 -40.5 4t-40.5 6
q4 31 30 95q14 -5 27.5 -9.5t27.5 -9.5q2 43 0.5 85.5t-3.5 85.5q-30 -6 -56 -12t-47 -11q48 26 101 48zM423 555q-63 3 -134.5 -4t-137.5 -18q14 -54 22.5 -102.5t13.5 -90.5q45 -12 97 -18q-8 17 -14 34.5t-13 35.5q17 -20 32 -38.5t30 -35.5q26 -2 53.5 -3.5t57.5 -1.5
q7 48 9 82t1 58.5t-4.5 42l-6.5 32.5z" />
    <glyph glyph-name="S" unicode="S" horiz-adv-x="606" 
d="M427 105q-42 -30 -71.5 -41.5t-58.5 -16.5q-24 -5 -49.5 -6.5t-55.5 0t-65.5 7t-80.5 16.5l44 75q88 -14 166.5 -8.5t149.5 26.5q-26 57 -48.5 98.5t-42.5 71.5t-37.5 50.5t-33.5 36.5q-13 13 -25 24t-25.5 21.5t-29.5 21t-37 22.5q-55 -23 -103 -52q19 18 39 34.5
t40 31.5q-13 8 -28 16t-32 18q20 -6 38.5 -12t35.5 -11q88 62 181 93.5t180 35.5l21 -108q-104 14 -188 3t-156 -38q52 -20 90.5 -39t67 -38.5t49.5 -38.5t38 -38q42 -45 70 -86.5t45 -73.5q33 16 63 36q-15 -14 -28.5 -27.5t-26.5 -24.5q13 -26 18 -42.5t5 -17.5l-106 -51
l-6 16t-7 16z" />
    <glyph glyph-name="T" unicode="T" horiz-adv-x="542" 
d="M530 514q-54 17 -115 28.5t-123 19.5q13 -68 19.5 -140.5t9 -140t2 -124.5t-1.5 -94l-132 -44q19 64 31.5 135t20.5 142.5t12 140.5t6 129q-78 8 -143.5 11.5t-100.5 5.5q134 35 245 46q1 16 1 30.5v27.5q5 -14 9 -28t8 -29q68 5 128.5 1t117.5 -16z" />
    <glyph glyph-name="U" unicode="U" horiz-adv-x="614" 
d="M462 658q75 13 123 4q-18 -59 -31.5 -122.5t-23.5 -128t-15 -128t-5 -122.5q40 9 70 20q-38 -24 -69 -42q0 -23 1.5 -45.5t3.5 -43.5q-15 39 -27 78q-61 -31 -107 -42.5t-88 -16.5q-51 -6 -101 -6q4 -11 8.5 -23t9.5 -25q-22 25 -40 49q-28 2 -57 5t-61 10q-22 49 -4 91
q15 -5 30.5 -9t31.5 -7q-11 23 -20.5 45.5t-17.5 47.5q-10 31 -17 67t-10 83.5t-0.5 109.5t11.5 145q32 8 64 13t65 7q-23 -81 -33 -147.5t-14 -134.5q-2 -25 -2 -51t2.5 -55.5t8.5 -63.5t18 -74q83 -11 165.5 -7t149.5 16q-32 117 -37.5 241t18.5 262z" />
    <glyph glyph-name="V" unicode="V" horiz-adv-x="570" 
d="M249 266q35 69 72 126.5t75 107t77 92t79 81.5q-59 -84 -101.5 -156t-74 -137t-54 -126t-40.5 -123q6 -29 11 -58t9 -58q-8 23 -15.5 43.5t-14.5 38.5q-5 -18 -9 -36t-7 -35q-47 16 -91 39q13 39 27.5 76.5t31.5 73.5q-9 20 -17.5 38t-18.5 37q-13 26 -27.5 56t-35 65
t-48 76.5t-66.5 91.5q15 23 40 42t54 40q48 -99 82 -197t62 -198z" />
    <glyph glyph-name="W" unicode="W" horiz-adv-x="805" 
d="M570 288q35 89 56 169.5t32 158.5l122 17q-30 -87 -56 -151t-49 -112t-42.5 -82.5t-37.5 -61.5l18 -46t17 -47q-24 -44 -85 -96l-8 48t-9 48q-19 -24 -37 -43.5t-37 -37.5q18 32 34.5 63t30.5 60q-17 85 -39.5 164t-48.5 154q-18 -62 -39.5 -124t-43.5 -116.5t-42 -98
t-33 -68.5q2 -15 2.5 -31t1.5 -33l-8 28t-9 28l-103 31q33 42 63 84q-40 106 -89.5 206.5t-111.5 191.5l93 55q30 -51 54.5 -111t45.5 -126q12 -36 23 -75.5t19 -90.5q51 75 91 148t71 143q-11 32 -23.5 63t-26.5 60q17 -23 32.5 -47t30.5 -48q11 27 21.5 53t19.5 52
q-4 -30 -11 -62.5t-16 -67.5q35 -59 66.5 -121t60.5 -128z" />
    <glyph glyph-name="X" unicode="X" horiz-adv-x="565" 
d="M156 50q-26 -11 -115 -17q30 88 73.5 177.5t103.5 175.5q-39 44 -81 92.5t-89 102.5q24 45 66 80l150 -213q47 59 100.5 111t115.5 97q-54 -58 -99 -119.5t-86 -134.5q64 -91 126.5 -182t124.5 -184q-43 38 -114 113t-170 187q-29 -61 -55.5 -131t-50.5 -155z" />
    <glyph glyph-name="Y" unicode="Y" horiz-adv-x="539" 
d="M271 349q45 94 109.5 171.5t134.5 133.5q-38 -49 -69.5 -92.5t-56 -88.5t-41.5 -93.5t-26 -106.5q15 -22 30 -43t32 -42q-17 15 -33 29.5t-33 28.5q-9 -82 -3 -191q-57 -27 -118 -24q-2 72 13 141.5t42 135.5q-66 63 -121 129t-99 142q19 22 79 70q35 -79 74.5 -153.5
t85.5 -146.5z" />
    <glyph glyph-name="Z" unicode="Z" horiz-adv-x="594" 
d="M578 603q-23 2 -45.5 2h-44.5q-83 -118 -160 -245t-134 -252q133 16 226.5 35.5t137.5 34.5l-78 -108q-81 -4 -155.5 -3t-146.5 7q-5 -11 -8.5 -20.5t-8.5 -20.5h-96l24 51q-15 2 -30 4.5t-29 4.5q17 2 33.5 3t32.5 2q41 82 87.5 153.5t95 134t97 117t93.5 102.5
q-205 -5 -379 -58q-7 59 16 111q84 -1 181.5 -7t200.5 -26q14 14 27.5 28t27.5 28q-11 -14 -21.5 -29t-21.5 -30q20 -4 39 -8.5t39 -10.5z" />
    <glyph glyph-name="I" unicode="I" horiz-adv-x="220" 
d="M73 35q-6 68 -9.5 144t0 155.5t15.5 160.5t38 161q-2 -51 -1 -116.5t7 -143t18 -165t32 -181.5z" />
    <glyph glyph-name="b" unicode="b" horiz-adv-x="599" 
d="M102 556q-12 -3 -21 -5.5t-18.5 -5.5t-20.5 -6t-26 -7q13 8 23 15.5t19 14t19 13t23 12.5l-2 22l-2 22l94 32v-19.5t1 -18.5q64 25 133 40q-5 6 -7 9.5t-3.5 7t-4 7t-7.5 8.5q7 -5 12 -8.5t8.5 -6.5l7 -6t9.5 -7q10 2 19.5 4t19.5 4q76 -49 106 -117q-12 5 -24 9.5
t-26 7.5q17 -22 26 -39t14 -31q11 -30 14 -47.5t-1 -32.5q-3 -14 -11 -28t-23 -32q61 -60 98 -123q10 9 15.5 13.5t19.5 17.5q-6 -7 -10 -12t-7 -9l-6 -8t-8 -10q14 -25 25 -55l-43 -22l-40 -38q-2 8 -4.5 15.5t-4.5 15.5q-24 -34 -43.5 -68t-38.5 -74l-70 11q16 24 30 42
q-63 14 -119 27.5t-104 30.5q-3 -14 -5.5 -26l-5 -24t-5.5 -25.5t-8 -31.5q1 16 1.5 29t0 26t-0.5 27.5v32.5q-44 16 -84 38q13 37 34 71q13 -8 25.5 -15t25.5 -14q-2 79 -6.5 165t-12.5 182zM191 574q0 -43 -1 -76.5t-3 -62t-4.5 -53.5t-5.5 -50q-4 -32 -8 -66t-12 -76
q73 -40 132 -67.5t93 -39.5q25 30 44 48t36 33q5 4 9 8t9 8q-14 47 -29 85t-29 67q-19 -20 -45 -43t-59 -46l-63 69q47 33 73 55t40 38q-24 24 -68 54q23 -11 42 -21t36 -21q10 13 16 25q10 19 15.5 36.5t7.5 35.5q1 15 -2.5 31.5t-14.5 38.5q-35 5 -71.5 4t-71.5 -5z" />
    <glyph glyph-name="c" unicode="c" horiz-adv-x="540" 
d="M57 181q2 46 5.5 79t8.5 59q-12 22 -28 53t-30 64q17 -25 34 -49.5t30 -41.5q5 17 9.5 31.5t10.5 28.5q17 37 37 69t41 60q14 19 31.5 36.5t53.5 41.5q-63 21 -111 20q23 5 47.5 6.5t47.5 1.5q15 0 29 -0.5t31 -1.5q12 8 26 15.5t31 15.5q-12 -8 -22.5 -16t-19.5 -16
q6 0 12.5 -0.5t14.5 -1.5q15 -2 29.5 -3.5t34.5 -6.5t48.5 -15t72.5 -28q-21 -20 -33 -37.5t-28 -40.5q-30 20 -55.5 35t-48 26.5t-43 20.5t-41.5 18q-20 -20 -32 -37.5t-22 -34.5q-17 -30 -29.5 -61.5t-21.5 -61.5q-9 -29 -14.5 -56.5t-9.5 -55.5q-2 -11 -3 -21.5t-1 -21.5
q15 -18 32 -33q29 -26 56.5 -42.5t67.5 -30.5t91.5 -25.5t108.5 -7.5l-63 -98q-47 14 -82.5 28t-61.5 27.5t-45 27t-34 25.5q-22 18 -38.5 35t-31.5 37q1 -8 1.5 -16.5t2.5 -17.5q-59 -2 -96 18z" />
    <glyph glyph-name="a" unicode="a" horiz-adv-x="573" 
d="M37 26q6 27 12.5 58.5t14 64t16.5 62.5t18 53q-26 5 -47 11t-39 15q23 -5 46 -7.5t46 -3.5q18 41 37.5 84t40.5 84t42.5 78t44.5 67q-8 20 -14 34.5t-11.5 25t-9.5 18.5l-8 16q18 -23 32 -35.5t30 -34.5q10 12 18 21t16 17t16.5 16t17.5 18q-8 -13 -15 -23.5t-13 -21.5
t-12 -23t-13 -27q21 -32 40 -68.5t36 -72.5t31.5 -69.5t27.5 -60.5q32 6 63.5 11t60.5 7l-38 -82q-15 -1 -29 -1t-28 -1q11 -27 19.5 -57t15 -57t10.5 -47.5t6 -28.5l-100 -51q-6 55 -17 120t-25 120q-24 -1 -50.5 -1.5t-52.5 -1t-49.5 0t-42.5 1.5q-5 -22 -10 -50.5
t-9 -58.5t-8 -59.5t-7 -53.5zM284 551q-12 -27 -25 -60t-26 -68.5t-25 -71t-20 -68.5q19 2 41.5 5t45.5 6t45.5 7t40.5 7q-8 30 -18 63t-20 65t-20 62t-19 53z" />
  </font>
</defs>
</svg>
