<?xml version="1.0" standalone="no"?>
<!DOCTYPE svg PUBLIC "-//W3C//DTD SVG 1.1//EN" "http://www.w3.org/Graphics/SVG/1.1/DTD/svg11.dtd" >
<svg>
<metadata>
Created by FontForge 20120731 at Wed Jun 19 02:08:33 2019
 By www-data
Copyright (c) 2018 by Vladimir Nikolic. All rights reserved.
</metadata>
<defs>
<font id="NightinTokyoShadow-Regular" horiz-adv-x="575" >
  <font-face 
    font-family="Night in Tokyo Shadow"
    font-weight="400"
    font-stretch="normal"
    units-per-em="1000"
    panose-1="0 0 0 0 0 0 0 0 0 0"
    ascent="750"
    descent="-250"
    x-height="640"
    cap-height="645.5"
    bbox="8.03704 -121.05 739.778 682"
    underline-thickness="50"
    underline-position="-50"
    unicode-range="U+000D-007A"
  />
<missing-glyph horiz-adv-x="343" 
 />
    <glyph glyph-name=".notdef" horiz-adv-x="343" 
 />
    <glyph glyph-name="NULL" horiz-adv-x="0" 
 />
    <glyph glyph-name="NULL" horiz-adv-x="0" 
 />
    <glyph glyph-name="nonmarkingreturn" unicode="&#xd;" horiz-adv-x="343" 
 />
    <glyph glyph-name="space" unicode=" " horiz-adv-x="343" 
 />
    <glyph glyph-name="E" unicode="E" horiz-adv-x="510" 
d="M51 415q5 -8 6.5 -25t3.5 -45q0 -2 3 -2l35 13q-1 -15 -1.5 -29.5t-0.5 -28.5q0 -33 1.5 -63.5t5.5 -59.5q-22 -2 -42 -5.5t-39 -7.5q-1 0 -1 -1.5t1 -1.5q11 -2 22 -2t22 -1l39 -4l8 -48q0 -2 1 -2q29 5 50.5 8t34.5 3q2 0 2 2l-8 27v2q17 -2 37 -5.5t45.5 -8.5
t58 -12.5t74.5 -17.5q2 0 2 1l31 70v2q0 1 -1 1q-30 5 -75 7t-100 2h-40.5t-40.5 -1q-14 59 -20.5 104.5t-9.5 86.5q51 14 108 21.5t133 13.5q2 0 2 2t-2 2q-45 8 -90.5 12t-93.5 4q-14 0 -28 -0.5t-31 -0.5v1q-1 42 -1 83v81q18 -2 35 -4l34 -4q24 -2 45.5 -4.5t42.5 -8
t43 -14t47 -21.5q0 -1 0.5 -0.5t0.5 2.5q0 19 -3 87q0 2 -2 2q-11 0 -29 0.5t-42 0.5q-36 0 -81 -1.5t-91 -8.5v39q0 5 -2 1l-6 -20l-7 -21q-23 -5 -44 -9.5t-41 -9.5q-2 0 -1.5 -1.5t2.5 -1.5q13 2 33.5 1t46.5 -3q-11 -45 -18 -86t-11 -83q-2 0 -1.5 -0.5t-1.5 -0.5
q-11 -1 -23.5 -2t-24.5 -3zM39 429q17 2 27 3t17 2l9 1q2 28 5.5 54.5t9.5 52.5q-4 -1 -11 -1q-3 0 -7 4l-37 37q-11 2 -13 12.5t9 16.5q19 5 38 9t41 8q1 2 1 4l4 10l4 19q5 11 16.5 9t13.5 -11l22 -23q36 3 71.5 4t64.5 1q24 0 45.5 -1.5t38.5 -3.5v-6l41 -39
q2 -34 3.5 -60t1.5 -36q0 -8 -7.5 -11t-12.5 2l2 -2q-47 25 -88 34t-85 14q-1 0 -2.5 0.5t-3.5 0.5q-16 2 -25.5 2.5t-26.5 2.5v-97h7q50 0 95.5 -4t89.5 -12h-1q0 -1 0.5 -1.5t0.5 -1.5h1l42 -43h-2q2 0 2 -10.5t-2 -13.5q-72 -6 -126 -13t-103 -19q2 -58 16 -126h41
q55 0 100.5 -3t74.5 -8q2 -2 5.5 -4.5t5.5 -7.5l38 -36q6 -7 4 -15l-37 -77q-78 19 -126 29t-80 13l3 -14q0 -4 -3.5 -9t-7.5 -5q-9 0 -35 -3.5t-61 -8.5l-41 40h-4l-3 15q-8 1 -17 1t-17 1l-40 40q-1 0 -1 0.5t-1 0.5t-1 3v2q-1 6 -1 14t1 10q14 4 31.5 6.5t36.5 5.5
q-6 51 -6 111v10l-24 23l-7.5 5t-4.5 8q-1 27 -4 45t-7 27zM65 106v-1h1zM391 529q0 -1 1 -2z" />
    <glyph glyph-name="F" unicode="F" horiz-adv-x="480" 
d="M36 400q-11 -28 9 -73q2 -2 3 -1q11 7 22 11.5t23 9.5q-1 -17 -1 -33v-32q0 -58 4 -109.5t12 -91.5q0 -1 1 -2q29 6 50 8t35 2v1q0 1 0.5 1t0.5 1q-25 90 -34 156t-11 118q37 10 81 16t106 9q2 0 2.5 1t-1.5 2q-29 9 -68 13t-86 4h-36v3q-2 41 -2 80v76h3
q17 -1 33.5 -1.5t33.5 -1.5q26 -1 49.5 -2.5t47 -5.5t47.5 -11.5t51 -20.5q3 -3 3 2q0 20 -9 88q0 2 -2 2q-14 0 -40.5 -1t-61 -3t-75 -6t-80.5 -11q1 12 1 23v23q0 1 -1.5 1.5t-2.5 -0.5l-13 -50q-26 -5 -51 -10t-46 -13q-1 -1 -1 -2.5t2 -1.5q16 3 51 3q10 0 19 -0.5
t20 -0.5q-11 -43 -17 -83t-10 -80q-29 -1 -59 -6zM36 414l15 1q8 2 16 3t18 2q3 25 6 49t7 48h-10.5t-9.5 -1q-6 0 -10 4l-36 36q-9 3 -12.5 12.5t5.5 13.5q25 9 49 14.5t45 10.5l2 6l10 35q4 11 15.5 9t13.5 -12l27 -28q57 8 109.5 10.5t87.5 2.5q10 0 18.5 -0.5t14.5 -0.5
q0 -4 1 -6l39 -39q5 -38 7.5 -62t2.5 -35q0 -8 -6.5 -11.5t-11.5 0.5l1 -1q-26 12 -50 19.5t-47 11.5t-46.5 5.5t-48.5 2.5q-16 2 -27.5 2.5t-31.5 0.5v-93q86 -1 142 -17q6 -3 8 -11l37 -37q6 -5 4 -13.5t-10 -8.5q-57 -2 -99.5 -8t-77.5 -14q3 -50 12.5 -113.5
t32.5 -149.5q0 -4 -3 -9.5t-8 -5.5q-13 0 -36.5 -3t-58.5 -8l-42 41q-1 0 -2 -0.5t-2 -0.5q-8 44 -13 98.5t-5 114.5l-33 34q-7 1 -12 8q-13 29 -13 56q0 9 1 16.5t5 16.5z" />
    <glyph glyph-name="G" unicode="G" horiz-adv-x="578" 
d="M243 351q38 -3 78.5 -10.5t96.5 -26.5q-7 -14 -12 -28t-10 -29q-5 -12 -9 -30t-8 -35l-5 -20q-26 3 -56 3q-8 0 -16.5 -0.5t-16.5 -0.5q-21 0 -41.5 -1.5t-42.5 -6.5q-25 55 -37.5 104t-19.5 84q28 0 51.5 -0.5t47.5 -2.5zM79 371q-8 -2 -13 -4l-10 -4q-6 -2 -12 -4.5
t-16 -4.5q-2 -1 -2 -2.5t2 -1.5q7 0 12 0.5t9 0.5h14.5t16.5 1l5 -46q6 -45 15.5 -90t21.5 -77q-13 -5 -25 -11.5t-26 -16.5q-3 -3 2 -3q27 7 49 13q2 0 3 1t3 1q5 -12 10.5 -23.5t12.5 -19.5q0 -3 2 -1l67 41q1 0 1 3l-4 11q11 1 25.5 0.5t25.5 -1.5q23 -2 47.5 -5t49.5 -9
v-3q-2 -10 -3 -19.5t0 -18.5q0 -2 2 -2l63 3l1 2q-1 5 -1 18l5 -2l7 -3q3 -3 3 1l27 61q3 3 -1 3l-8 2q-10 2 -14 3l-12 2q5 23 10 52.5t12 54.5l3 13q1 2 1 5t2 6l12 -5q8 -2 10 -4q0 -1 1 -0.5t1 1.5q8 18 15.5 35.5t16.5 35.5q1 1 0 2t-2 1l-32 7q6 17 12.5 33t12.5 32
q2 5 -3 2q-17 -14 -29.5 -29.5t-23.5 -30.5q-48 10 -87.5 12.5t-74.5 3.5q-29 0 -66.5 -2t-84.5 -10q-5 28 -5.5 53.5t-0.5 48.5v26v19q22 11 50.5 22t52.5 19q25 8 53 16t61 14.5t72 12.5t87 10q2 0 2 2t-2 2q-34 5 -62.5 8t-56.5 3q-17 0 -37.5 -1.5t-40.5 -3.5
q-36 -3 -78 -9.5t-90 -21.5l5 20q1 5 2.5 11t3.5 12q0 2 -1.5 2t-2.5 -1q-8 -11 -16 -26t-13 -25q-12 -5 -26.5 -10.5t-24.5 -10.5q-8 -21 -11.5 -41t-1.5 -43q0 -4 3 -1l13.5 9t15.5 10q-8 -35 -11 -70t-1 -66zM52 375q2 0 3 1l11 4v16q0 15 0.5 33t2.5 35l-11 11
q-11 0 -11 13q-2 24 1.5 47t13.5 48q8 3 20 8t22 9l9 3q5 10 12.5 22.5t12.5 20.5q3 4 7 7q8 5 16 -1q5 -2 7 -7l19 -20q35 9 66 13t60 7q19 2 40 3t38 1q28 0 57.5 -2.5t61.5 -7.5q0 -1 0.5 -1t0.5 -1h1l43 -43h-2q2 -1 2 -11.5t-2 -13.5q-48 -4 -87 -9.5t-71 -12t-59 -14
t-52 -15.5q-24 -9 -49.5 -19.5t-48.5 -20.5v-38q0 -10 -0.5 -19.5t0.5 -20.5q31 4 56.5 5t48.5 1q35 -1 73 -4t83 -11q11 14 23 28.5t30 29.5q8 4 14 1.5t8 -10.5l38 -38q3 -7 1 -13q-5 -13 -9 -22t-9 -20l20 -20q7 -7 6 -13l1 -1q-8 -18 -16 -35t-15 -35q-2 -4 -8.5 -6
t-10.5 2l1 -2q-1 1 -2 1q-4 0 -6 1h-2l-2 -12q-11 -41 -17 -78l26 -25q6 -8 3 -16h1l-29 -60v1q-4 -7 -12 -7l-2 -16l-84 -1l-40 40h-5q-1 5 -1 11l-39 5q-8 0 -17 0.5t-18 0.5q0 -5 -1 -9.5t-8 -5.5l-65 -39q-5 -5 -7.5 -3.5t-6.5 5.5l-36 35l-33 -10q-1 0 -5 2l-38 38
q-3 0 -6 4t-4.5 8.5t-1 9t2.5 7.5q11 7 20 12.5t19 9.5q-11 31 -18.5 71t-13.5 80h-3q-3 0 -4 0.5l-3 1.5l-38 38q-10 1 -11 12t10 17l22 7zM199 300q5 -23 12 -53t18 -63q14 1 27.5 1.5t28.5 0.5h24q2 0 4 0.5t5 0.5h24t23 -2q0 3 0.5 6t0.5 6q3 12 7.5 29.5t10.5 34.5l4 9
q1 4 1 6.5t1 4.5q-29 7 -55 11t-50 6q-23 1 -40.5 1.5t-45.5 0.5z" />
    <glyph glyph-name="H" unicode="H" 
d="M82 302q0 -64 3 -116t12 -97q0 -1 1 -1l1 -1l77 31q1 0 1 2q-11 57 -17 111t-10 105q8 0 16 0.5t17 0.5t18 -0.5t18 -0.5q32 -2 71 -6t84 -12q-1 -15 -1 -28.5v-28.5q0 -43 2 -83.5t6 -78.5q0 -1 2 -1l82 14q1 0 1 2q-9 46 -16.5 93t-12.5 97q13 -4 24.5 -7t25.5 -8
q3 0 3 1l24 70q0 3 -2 3q-19 2 -38 4.5t-42 4.5q-6 73 -6 142q0 30 1 58.5t4 56.5q0 1 -1.5 1.5t-2.5 -1.5q-21 -58 -32.5 -122.5t-16.5 -132.5h-30q-51 0 -100.5 -3t-99.5 -11q-5 60 -6 109t-1 91v78q0 5 -2 1q-35 -94 -45 -164.5t-12 -128.5q-13 -3 -26.5 -7t-26.5 -9
q-2 -1 -1.5 -2t2.5 -1l16 2l36 2v-29zM95 75q-4 2 -7.5 4.5t-3.5 6.5q-8 38 -11 85.5t-5 102.5q-3 1 -3 4l-37 36q-10 2 -13.5 12t7.5 15q17 6 28 10t19 6q2 60 14 130t44 160q5 9 14.5 6.5t12.5 -11.5l38 -37q3 -3 3 -10q-1 -16 -1 -35v-43q0 -32 0.5 -65t2.5 -72
q38 3 74.5 5t76.5 2h18q5 66 17 128.5t33 121.5q5 10 15.5 7t12.5 -14l36 -36q-1 0 -1 0.5t-1 0.5l2 -1q3 -2 3 -8q-2 -28 -3 -56.5t-1 -58.5v-45.5t2 -44.5l36 -6q2 -2 4.5 -6.5t4.5 -7.5l34 -34q2 -2 4.5 -5.5t2.5 -5.5l-24 -68q-1 -8 -6 -10t-10 -2l-35 11
q5 -46 12.5 -94.5t15.5 -92.5l-105 -14l-42 40h-4q-4 42 -6 86t-2 89v12q-29 5 -53 6.5t-46 3.5q-5 0 -9 0.5t-9 0.5h-18q-5 0 -9 -0.5t-8 -0.5h-6q5 -45 11 -98t17 -115l-89 -36q-1 0 -4.5 1.5t-5.5 3.5z" />
    <glyph glyph-name="I" unicode="I" horiz-adv-x="223" 
d="M148 115q2 0 2 2q-29 133 -38.5 248t-9.5 203v33t1 31h-2h-2q-26 -84 -36.5 -168.5t-10.5 -166.5q0 -51 2.5 -100t7.5 -94q0 -2 2 -2zM54 90h-5q-4 50 -7 101.5t-3 105.5q0 84 10 169.5t39 172.5q4 9 14 6.5t13 -12.5l37 -36q4 -4 4 -9q-1 -15 -1 -30.5v-32.5
q0 -88 9.5 -205t37.5 -257l-107 -13z" />
    <glyph glyph-name="J" unicode="J" horiz-adv-x="365" 
d="M107 118q-3 -3 0 -3l51 -35h2q11 21 24 35q18 -8 44 -19l1 1l-1 1l-32 34q42 49 99 97l1 2q-8 42 -16.5 96.5t-16 111t-13 111t-6.5 97.5q0 2 -1.5 2.5t-2.5 -1.5q-13 -36 -21.5 -121t-8.5 -233v-88l-14 -13q-8 -7 -15.5 -13.5t-15.5 -12.5q-23 26 -43.5 55t-41.5 61
q-2 2 -4 0l-45 -69v-3q41 -35 103 -70zM103 132q-9 7 -18.5 14t-17.5 15l-26 26l-19 15q-3 5 -5 10t3 10q11 16 22.5 33t22.5 32q5 5 13.5 5t13.5 -5l6 -9l35 -35l37 -55l8 5l11 10l9 7q-1 20 -1 44v40q0 149 8.5 236t22.5 125q5 10 15.5 7t12.5 -12l37 -37q3 -3 3 -8
q1 -43 7 -97.5t13.5 -112t16 -113t15.5 -99.5q-28 -24 -51.5 -46.5t-43.5 -46.5l26 -27q9 -10 3 -16.5t-16 -2.5q-3 1 -6.5 2.5t-6.5 3.5q-8 4 -18 8.5t-7 0.5q-4 -6 -8.5 -13t-7.5 -12q-4 -5 -8 -7.5t-11 3.5l1 -1q-13 8 -24 16.5t-24 16.5l-32 33l-13 8q-5 5 -4.5 13.5
t5.5 15.5h1z" />
    <glyph glyph-name="K" unicode="K" horiz-adv-x="495" 
d="M218 357q-18 -25 -39 -49.5t-47 -52.5q6 -28 13 -60t15 -69l-1 -2q-2 -2 -25.5 -8t-65.5 -16q-2 0 -2 2l-2 46v42l-29 -22q-5 -2 -2 3q6 7 10 13t9 13l11 12q-1 22 -1.5 47t-0.5 47q0 75 7 159t30 188q0 2 1.5 2t1.5 -2v-32q0 -25 0.5 -46t1 -40.5t1.5 -39t3 -40.5
q2 -29 5.5 -66t12.5 -91q18 27 35.5 54.5t31.5 53.5q-8 11 -16 21l-16 20l-3 4q-1 2 0 2.5t2 -0.5q12 -7 22 -14.5t20 -15.5q27 49 48 95t35 93q0 1 2 1q24 5 47.5 10.5t47.5 12.5q4 0 3 -3q-39 -84 -74.5 -140.5t-69.5 -101.5q60 -56 108.5 -122t82.5 -135v-2v-1l-44 -20
t-43 -19h-2q-1 0 -1 1q-23 86 -55 154t-66 118q-1 -1 -1 -2t-1 -2zM329 86q0 -5 11 -9l36 -36q8 -6 12 -6q23 9 45 19.5t45 20.5l-1 1q4 2 6 7.5t-1 10.5l1 -3q-32 63 -75.5 124t-96.5 114q-3 5 -6.5 8.5t-7.5 8.5q31 43 66.5 99.5t72.5 136.5q5 9 -1 13l-38 38
q0 5 -5.5 8.5t-13.5 3.5q-24 -6 -50.5 -12.5t-51.5 -12.5q-16 -45 -34.5 -89.5t-44.5 -90.5l-27 18l-8 6l-3 1.5t-3 0.5q-2 25 -2 50.5v59.5v31h-1l-39 40v3q0 1 -8 1.5t-15 -0.5h-3l-1 1v-1q-1 0 -1 -0.5t-1 -0.5h-1v1q-22 -103 -29.5 -187t-7.5 -161q0 -20 0.5 -45
t1.5 -45l-10 -13h-1l-14 -21q-1 -1 -1 -2q-1 0 -0.5 0.5t-1.5 -1.5q-5 -8 -1.5 -14.5t10.5 -7.5l22 -22l2 -46h5l40 -39q100 18 115 33q-9 36 -16 68.5t-12 60.5q17 19 34 37t31 36q22 -42 42.5 -92t35.5 -104zM160 409q-1 4 -1 8v9l18 -24q-4 -7 -7.5 -13t-7.5 -12l-2 28v4
z" />
    <glyph glyph-name="L" unicode="L" horiz-adv-x="433" 
d="M120 79q3 -3 3 1q-2 14 -3 28t-2 29q42 -4 81.5 -5.5t79.5 -1.5q12 0 23.5 0.5t23.5 0.5h1l37 92q2 5 -3 2q-58 -21 -118 -37t-127 -27q-2 20 -2 39v39q0 55 3.5 109.5t9 105.5t13.5 97.5t17 85.5q0 1 -1 2l-91 -12h-2q-6 -66 -6 -133q0 -91 10.5 -176t28.5 -160
q-17 -2 -33.5 -4.5t-34.5 -4.5q-1 0 -1 -1.5t1 -1.5q19 -3 36.5 -4.5t36.5 -3.5q5 -16 9.5 -30.5t9.5 -28.5zM108 76l-5 12q-17 1 -34 5l-41 39l-1 1q-1 0 -1.5 3.5t-0.5 8.5v10v7q14 2 27.5 3.5t26.5 3.5q-17 73 -25.5 155.5t-8.5 169.5q0 35 1.5 71.5t7.5 74.5l120 11
l-1 -5l41 -40q-10 -42 -18.5 -91t-14.5 -101.5t-9.5 -108t-3.5 -109.5v-13q50 11 98 24.5t91 29.5q8 3 14 -0.5t6 -10.5l37 -36q5 -5 2 -15l-40 -98h-31q-5 0 -11 -0.5t-13 -0.5q-37 0 -73.5 2t-76.5 5l2 -22t3 -22q0 -8 -7.5 -11.5t-12.5 1.5l-38 38q-5 0 -10 8v1z" />
    <glyph glyph-name="M" unicode="M" horiz-adv-x="632" 
d="M213 322q-1 -1 -0.5 -1.5t2.5 0.5l24 20l22 22q10 -19 18.5 -38.5t17.5 -39.5l1 -1l76 60v3q-11 17 -23 33t-25 31q34 25 67 46t70 43q5 -29 7.5 -56.5t4.5 -53.5q3 -39 3 -77q0 -46 -5.5 -98.5t-18.5 -115.5q0 -2 2 -2q56 3 101 29l1 2q2 94 -12 190t-52 198
q10 6 23 12.5t24 12.5l12 5q2 2 1 3q-8 10 -19 26.5t-24 41.5q-2 2 -3 1q-10 -5 -20 -12.5t-24 -17.5q-8 17 -15.5 33t-17.5 34q-1 2 -2.5 1t-1.5 -2q6 -22 11.5 -41t10.5 -37q-29 -25 -67 -61.5t-76 -80.5q-36 40 -76 76.5t-82 65.5q8 43 17 85q0 2 -1.5 2t-1.5 -1l-18 -34
t-17 -37q-20 13 -38.5 23.5t-37.5 22.5q-2 1 -3 -1t1 -3q17 -11 35.5 -26.5t36.5 -32.5q-17 -47 -31.5 -101.5t-25 -109.5t-16.5 -107.5t-6 -96.5q0 -7 0.5 -13t0.5 -13q0 -2 1 -2l89 -44q3 0 3 2q-6 43 -7.5 90t-1.5 98q0 67 3.5 135t14.5 135q28 -34 56 -75.5t54 -96.5
l-28 -35zM217 348l22 28q-12 23 -24 44.5t-24 41.5q-5 -57 -8.5 -115t-3.5 -113q0 -101 9 -186q0 -8 -4.5 -12t-12.5 -1l-95 48l-37 37l-8 5q-1 1 -1 3v7v24q0 42 5.5 93.5t15 106t23 108.5t30.5 101l-17 13l-35 33l-10 7q0 2 1.5 6.5t4 9t4.5 8t3 3.5l15 -8q14 -8 25 -13.5
t27 -15.5q5 14 10.5 24t11.5 22l6 11l-1 -1q5 9 15.5 6t12.5 -12l37 -37q4 -4 4 -8q-5 -18 -8.5 -33.5t-6.5 -33.5q27 -22 53.5 -46.5t49.5 -49.5q33 38 67 71t61 56l-8.5 34t-10.5 37q3 3 15 7t13 3l4 -8l35 -34q5 3 11.5 6.5t12.5 5.5l-1 -2q5 2 9.5 -1t9.5 -8
q1 -1 1.5 -2.5t1.5 -3.5l37 -36q13 -26 23 -41.5t16 -23.5q0 -1 1 -1q5 -5 2.5 -9t-6.5 -9l-12 -6q-4 -2 -7.5 -4t-8.5 -4q-6 -4 -12.5 -6.5t-11.5 -5.5q38 -101 51 -197t11 -193q-27 -16 -57 -23.5t-68 -8.5l-41 40h-6q15 72 21 127t6 100q0 38 -3 76l-1 22q0 2 -0.5 3
t-0.5 3q-20 -11 -38 -23.5t-38 -26.5q12 -14 21.5 -28t20.5 -30q5 -5 2.5 -9t-6.5 -6l-74 -60q-5 -5 -9 -3t-8 6l-34 33q-4 1 -6.5 3.5t-5.5 4.5l-4 8l-17 -16q-10 -6 -17 0l-37 37q-7 1 -10.5 6.5t1.5 14.5z" />
    <glyph glyph-name="N" unicode="N" 
d="M87 83l76 32q1 0 1 3q-14 53 -23 108t-14 114q-6 51 -6 108q0 20 1 39.5t3 43.5q33 -35 69 -78.5t72 -91.5t71 -99.5t66 -102.5q-2 -20 -4.5 -38.5t-4.5 -32.5q0 -5 2 -1q5 12 9.5 24.5t8.5 25.5l5 -5l10 -18q2 -2 3 -1l74 43v2q-14 23 -29 45t-31 44q21 97 29 189
t10 172q0 4 -3 1l-96 -37q-1 0 -1 -1q14 -66 20 -138.5t5 -140.5q-62 73 -135.5 143t-146.5 125q0 2 0.5 4t0.5 4q2 17 4.5 36t6.5 41q0 4 -3 1q-7 -19 -13 -37.5t-12 -36.5q-19 14 -38.5 27t-39.5 24q-1 1 -2 -0.5t1 -2.5q17 -15 35.5 -32.5t36.5 -36.5
q-20 -72 -31.5 -143.5t-11.5 -137.5q0 -93 23 -185zM394 73q-14 3 -14 17q3 14 5.5 29.5t4.5 35.5q-48 78 -104.5 157.5t-110.5 144.5q-1 -14 -1 -27.5v-24.5q0 -56 6 -107q5 -57 13.5 -111.5t22.5 -108.5q0 -4 -0.5 -9.5t-8.5 -5.5q-18 -8 -39 -17t-39 -17l-10 3l-39 39
l-7 1q-23 98 -23 198q0 67 10.5 137t30.5 140q-6 6 -16 15.5t-20.5 19t-20 18.5t-16.5 15l10 -2l3 6q1 2 2 4.5t2 4.5q2 6 4 6l18 -11q12 -8 24.5 -15t23.5 -15l21 60q3 10 13 7t13 -13l37 -37q-1 0 -1 0.5t-1 0.5l2 -1q4 -2 4 -9l-11 -68q54 -44 103.5 -90.5t95.5 -98.5
l15 -16q-1 57 -7 124t-19 128l108 41q6 2 12 -1.5t7 -10.5l37 -37q4 -2 4 -7q-2 -80 -9.5 -172t-28.5 -186q16 -21 30 -42.5t27 -43.5q3 -5 1 -9t-5 -7l-73 -44q-5 -2 -9 -0.5t-8 4.5l-4 5q-4 -8 -6.5 -16.5t-4.5 -15.5q-3 -6 -8.5 -5.5t-9.5 5.5z" />
    <glyph glyph-name="O" unicode="O" 
d="M408 372q4 -23 5.5 -47t1.5 -49q0 -30 -3 -63q-35 3 -66 3h-20t-20 -1q-26 -1 -57 -4t-65 -13q-34 76 -43 133t-10 105q-1 19 -0.5 36t1.5 36q54 23 108 43.5t108 35.5q27 -57 40.5 -109.5t19.5 -105.5zM411 668q0 1 -3 1q-7 -3 -25.5 -13t-47.5 -27q-31 -2 -57 -5.5
t-45 -6.5l-17 -3l-9 -2q-17 -2 -30 -4.5t-26 -7.5q4 8 7.5 18.5t8.5 20.5q1 2 -0.5 3t-2.5 -1q-7 -11 -13.5 -22.5t-11.5 -22.5h1l-3 -4v1q-15 -7 -36 -18.5t-52 -30.5q-1 0 -1 -2q4 -33 19 -64q0 -1 1 -1h1l22 12q-10 -34 -14 -64.5t-5 -60.5q-1 -8 -1 -17v-17
q0 -39 5.5 -79t21.5 -85q-11 -5 -19 -9.5t-16 -9.5l-29 -16q-2 -1 -1.5 -2.5t2.5 -1.5l17 5q17 5 29 8.5t23 6.5l14 -36q0 -1 3 -1l93 28q1 0 1.5 1t-0.5 1q-3 5 -6 9t-5 9q5 1 9 1h7h32q30 0 66.5 -3t79.5 -15l-1 -6q-2 -7 -4.5 -14.5t-4.5 -14.5q-2 -4 2 -2q9 8 14.5 15
t11.5 16q13 -3 25 -7.5t27 -9.5q3 0 3 1l31 81l-1 2q-26 5 -53 7q10 34 17 73t10 76q2 12 2.5 26t0.5 26q0 49 -9.5 97.5t-30.5 102.5q18 4 34 7t35 6q1 0 1 1.5t-1 1.5q-43 5 -80 6q-6 16 -16 36zM450 645q28 -2 57 -6q0 -1 0.5 -1.5t0.5 -1.5l43 -43h-1q1 -1 1 -11.5
t-1 -12.5q-14 -1 -28 -3.5t-27 -6.5q19 -50 27.5 -97t8.5 -95q0 -12 -0.5 -27t-2.5 -26q-4 -52 -17 -107q2 -2 2.5 -3.5t1.5 -3.5l34 -33q2 -2 4.5 -5.5t2.5 -5.5l-32 -81q-1 -8 -5.5 -9t-8.5 -1q-14 5 -23 8t-23 7q-5 -8 -11 -14l-13 -13q-13 -7 -17 1l-37 36q-13 0 -13 10
q-21 4 -41.5 5t-37.5 1h-31l4 -4l-2 1q3 -5 1 -10t-6 -7l-96 -30q-2 0 -5 0.5t-6 3.5l-28 27l-6 -2l-22 -7l-17 -4q-7 0 -10 4l-36 36q-10 1 -13 11.5t7 16.5l28 15l7 5h-1q5 3 8 5t11 5q-14 43 -18.5 81.5t-4.5 76.5v16.5t1 18.5q2 21 3.5 44.5t6.5 46.5l-5 7l-3 -2
q-11 21 -16.5 42t-7.5 47q29 18 50 30t38 21l2 2q5 10 12 22t14 22q4 0 14.5 -5t11.5 -7q0 -1 -0.5 -1t-0.5 -1l12 -10h1l13 3l11 1l16 2h-1q18 4 45 8t56 6q26 14 47 25t30 14q5 0 10 -1.5t6 -9.5zM396 371q-5 38 -13 76t-23 77q-43 -14 -89 -32t-87 -35q-1 -16 -1 -31.5
v-31.5q1 -37 7 -80.5t23 -95.5q25 6 48.5 7.5t43.5 1.5q8 1 21 1h20h27.5t27.5 -1q2 14 2 25.5v23.5q0 24 -2 47.5t-5 47.5z" />
    <glyph glyph-name="P" unicode="P" horiz-adv-x="537" 
d="M157 370q1 -1 2 -1v-1zM129 530q49 8 99.5 14t98.5 6h15t15 -1q2 -6 2.5 -11.5t2.5 -10.5q3 -15 6 -33.5t3 -44.5q0 -36 -9 -103q-62 0 -111.5 6t-91.5 17q-4 35 -11.5 75.5t-18.5 85.5zM358 310q-2 -8 -2 -12q0 -2 2 -2l82 -6q1 0 1 2q3 24 3 44l27 9l13 3q2 0 2 1.5
t-2 1.5l-40 -2q0 47 -10 94q-5 20 -12.5 46.5t-21.5 55.5l23 -4q2 0 2 1q-5 25 -15.5 44.5t-24.5 37.5l-1 1q-7 0 -16 -0.5t-17 -2.5q-4 4 -9.5 10.5t-3.5 5.5l-11 15q-1 2 -2.5 1t-0.5 -2q2 -6 4 -11l4 -10l4 -11q-42 -6 -98.5 -21.5t-116.5 -39.5q-6 23 -13 44.5t-15 46.5
q-1 2 -2.5 1.5t-1.5 -2.5q4 -25 6 -49t4 -50l-25 -12.5t-22 -13.5q-5 -2 -10 -5.5t-12 -6.5q-2 -1 -1 -3t3 -1q17 5 31 8.5t38 8.5q3 -47 3 -95v-22.5t-1 -22.5q-8 2 -15.5 4.5t-15.5 6.5l-11 5q-3 0 -3 -1q-22 -54 -25 -83q0 -2 2 -2q1 -1 2 -1h2q16 -2 31 -3.5t30 -3.5
q-4 -50 -11 -100t-18 -102q0 -1 2 -1l88 1q2 0 2 1q9 55 9 104q0 43 -6 93q52 -1 100.5 4t93.5 12q-2 -6 -2 -9zM143 614l11 -30q44 16 86 27t77 19l-6 16q-3 11 7 17.5t18 -2.5l14 -19l7 -6q8 0 17 0.5t17 -0.5l11 -13l31 -31q17 -22 28.5 -46.5t17.5 -57.5l-19 1
q10 -24 16 -47t11 -40q2 -14 4 -26.5t4 -25.5l31 -31q1 0 1.5 -3.5t0.5 -8v-8.5t-1 -5l-11 -2h-1l-18 -5q0 -11 -0.5 -22.5t-5.5 -28.5l-103 10l-16 15q-35 -5 -73 -7.5t-78 -2.5q2 -22 3 -43t1 -41q0 -26 -3 -53.5t-9 -61.5h-112l-40 40h-6q10 47 17 88.5t11 79.5
q-4 0 -5 1q-4 1 -14 11l-29 30h-1q-3 0 -6.5 3t-8.5 8q2 17 8 40t17 50q2 8 8 9t11 1l14 -5q3 -2 6.5 -3t8.5 -3v28v29l-15 -3l-42 40h-1v5l-8 14q-2 8 -1 9q9 4 13 6.5t6 4.5q12 7 21.5 13t20.5 11q-2 23 -4.5 44t-4.5 44q0 11 10.5 15.5t15.5 -5.5v-4l38 -36zM185 479
q7 -29 11.5 -55.5t9.5 -52.5q65 -11 145 -12q5 29 6.5 51t1.5 39q0 25 -5 48q-41 -1 -84 -6t-85 -12z" />
    <glyph glyph-name="Q" unicode="Q" horiz-adv-x="561" 
d="M338 580l-2 -1q-1 1 -1 2zM398 364q4 -23 5 -48t1 -50q0 -15 -0.5 -29.5t-1.5 -31.5q-21 2 -40 2h-39h-26l-7 15q-5 19 -12 38q-1 2 -2.5 1.5t-1.5 -2.5q-3 -14 -6 -27.5t-6 -25.5q-41 -3 -88 -17q-35 75 -44 133.5t-10 105.5q-1 20 -0.5 36.5t1.5 33.5q54 25 107.5 44.5
t107.5 36.5q26 -54 40 -110t22 -105zM125 584q-15 -8 -35 -19t-51 -29q-1 0 -1 -2q2 -17 6.5 -33t12.5 -31q0 -1 3 -1l20 11q-10 -33 -13.5 -63t-5.5 -61v-29q0 -40 4.5 -81t20.5 -89q-8 -4 -13.5 -7t-10.5 -8q-12 -8 -31 -18q-2 -1 -1 -2.5t3 -0.5l28 9l16 4t18 4l3 -11
l9 -24q0 -1 3 -1l93 28q3 0 1 2q-6 7 -9 15l-1 3h8t9 1h40l-3.5 -14t-3.5 -12q-2 -8 -3 -13.5t-2 -10.5q0 -1 1 -2q20 -4 40 -8.5t41 -12.5q3 -2 3 1q-2 13 -4.5 24t-4.5 22q-2 5 -3.5 10.5t-3.5 11.5q39 -3 79 -15l-10 -35q0 -2 3 -2q8 8 13.5 15t10.5 18q14 -5 26.5 -8.5
t27.5 -8.5q2 0 2 1l32 79q0 3 -2 3l-53 8q11 33 17.5 71.5t9.5 76.5q2 12 2 25v24q0 51 -8.5 99.5t-30.5 102.5q18 5 34.5 7.5t35.5 6.5q1 0 1 1.5t-1 1.5q-19 2 -41 4t-39 2l-2 3q-3 8 -6 16.5t-8 16.5h-3q-8 -2 -26 -12t-47 -26q-38 -4 -68.5 -8.5t-50.5 -7.5
q-21 -4 -35 -6.5t-31 -9.5l8 20t8 21q1 2 0 2.5t-2 -0.5l-3.5 -3.5t-1.5 -3.5zM137 629q0 4 3 7q2 0 4 -1q3 0 11 -3t10 -5q2 -1 4 -1l10 -12l24 4q20 5 51 9t68 7l6 5q24 14 41.5 22t26.5 12q4 0 9.5 -2t7.5 -7v-1l28 -28q14 -1 28.5 -2t27.5 -2v-3l42 -42q0 -1 0.5 -4.5
t0.5 -8t-0.5 -8l-0.5 -3.5l-9 -2q-14 -2 -22.5 -3t-23.5 -6q20 -52 27.5 -99t7.5 -95v-25t-2 -26q-2 -26 -6.5 -53t-10.5 -53q2 -2 4 -8l34 -33q2 -3 4.5 -6t2.5 -5l-31 -81q-1 -8 -6 -9t-9 -1q-15 5 -24 9t-22 8q-6 -8 -11.5 -14.5t-14.5 -15.5q-8 -6 -16 0l-37 37
q-5 2 -6 4q2 -11 4.5 -22t4.5 -25q0 -8 -5 -12.5t-12 0.5l-1 1q-14 5 -38 10.5t-51 12.5l-25 25l-90 -26q-2 0 -6 0.5t-7 3.5l-27 25l-8 -2l-29 -8l-43 43h1l-2 2q-2 5 -5 11t-3 8v4q9 4 16.5 8.5l12.5 7.5q4 2 8 5t6 6l1 1q-15 46 -19 84.5t-4 78.5v21q0 2 0.5 4t0.5 4
t0.5 3.5t0.5 3.5q2 23 3.5 44t7.5 46l-7 4q-2 2 -5 4.5t-5 4.5q-7 15 -11.5 34t-5.5 43q14 8 26 16t23 13q32 19 41 23zM385 362q-6 35 -14.5 74t-22.5 78q-43 -14 -88 -31t-86 -34q-2 -15 -2 -31t1 -33q1 -38 6 -80t22 -94q13 3 25 4t25 3l11 45q2 9 12 12.5t15 -6.5l1 -7
l37 -36q-1 0 -1 1l3 -3v-4h29.5t31.5 -2q2 14 2 25v23q0 24 -2 48.5t-5 47.5zM499 589h1l30 -29z" />
    <glyph glyph-name="R" unicode="R" horiz-adv-x="578" 
d="M366 538h-2v2zM369 516q4 -15 6.5 -33.5t2.5 -46.5q0 -19 -1.5 -43.5t-6.5 -57.5q-24 0 -48 1.5t-44 3.5q-8 8 -15 16t-15 19q-5 6 -10.5 13t-11.5 14q-1 1 -2 0.5t0 -2.5l5 -16q3 -10 7.5 -20.5t7.5 -20.5q-20 2 -39 6.5t-38 9.5q-4 35 -11 75t-18 85q48 9 99 14.5
t99 5.5h14.5t13.5 -1zM23 498q-2 -1 -1.5 -2.5t2.5 -0.5q18 5 39 9.5t47 9.5q1 -26 1.5 -51t0.5 -51v-38l-17 5q-6 3 -13.5 5.5l-13.5 4.5q-3 0 -3 -1q-9 -26 -15.5 -46.5t-9.5 -35.5q0 -2 2 -2q17 -2 33.5 -4t33.5 -4q-4 -50 -11.5 -99.5t-18.5 -102.5l2 -1l88 1q1 0 2 1
q9 55 9 104q0 43 -6 93q24 0 46.5 1t45.5 3q29 -60 64.5 -112t80.5 -95l1 -1q55 14 90 50q2 0 0 2q-23 8 -72 48.5t-117 112.5l31 4l23 4l-4 -18q0 -1 -0.5 -1.5t-0.5 -2.5t2 -2l84 -6q2 0 2 2q2 12 2 23v22l29 8h-1l12 3q2 1 2 2.5t-2 1.5l-40 -3q0 46 -10 93q-5 22 -12 48
t-23 55q7 -1 13 -2t12 -1h1q-6 25 -16 44.5t-24 37.5l-2 1q-6 0 -15 -0.5t-18 -2.5q-1 3 -3.5 7t-4.5 6l-15 18q0 1 -2 0.5t-1 -2.5l11 -32q-42 -6 -98 -21t-116 -38q-6 23 -13 45t-15 45q-1 2 -2.5 1.5t-1.5 -2.5q4 -26 6.5 -50t4.5 -49q-44 -18 -85 -41zM29 483
q-1 0 -1.5 2.5t-2.5 4.5l-4.5 9t-2.5 7v1v1v-1v2l-1 1q21 12 40 21t38 17q-2 22 -4.5 43.5t-5.5 45.5q0 5 3 9t7.5 6t9 0.5t7.5 -6.5q0 -3 1 -3l37 -37l2 -3l10 -29q47 17 88 26.5t76 17.5q-2 5 -3.5 10t-3.5 9q3 2 13 6.5t13 4.5l7 -5q5 -6 7 -12l5 -5h34l13 -16l29 -29
q17 -21 28.5 -46t19.5 -58q-6 2 -9 0.5t-10 -0.5q11 -24 16.5 -45.5t9.5 -41.5l7 -42q3 -3 3 -7l37 -37q4 -3 3.5 -10t-7.5 -10l-11 -3l-21 -6q0 -11 -1 -21.5t-6 -28.5l-101 9q42 -36 75 -60t50 -32l-2 -3l41 -41q-52 -50 -111 -62l-41 40q-1 0 -1.5 -0.5t-1.5 -0.5
q-36 35 -68 78t-58 88q-13 -1 -26.5 -1h-25.5q2 -22 2.5 -43t0.5 -41q0 -26 -2.5 -53.5t-8.5 -61.5h-111l-40 40h-7q10 47 17 89t11 79q-5 2 -10 3.5t-10 3.5l-39 39q-3 0 -7 2q3 18 10 41.5t18 51.5q0 9 5.5 10.5t10.5 1.5l8 -3q7 -2 13 -3.5t9 -3.5h1v20v20t-1 18l-28 -7
q-1 0 -1 2l-40 38h-1zM366 436q0 27 -5 50q-40 -2 -82.5 -6.5t-84.5 -11.5q7 -29 11 -55.5t9 -52.5q2 0 4.5 -0.5t5.5 -0.5q-2 4 -2.5 7.5t-2.5 7.5l-2 6v-1l-7 19q4 2 13.5 6.5t13.5 4.5q2 -2 3.5 -4.5t1.5 -1.5q3 -6 7 -10l30 -30l6 -9l2 -1l2 -2q16 -2 35 -2.5t36 -0.5
q5 30 5.5 50t0.5 38z" />
    <glyph glyph-name="S" unicode="S" horiz-adv-x="578" 
d="M383 137q0 -4 3 -1l90 42q1 0 1 1t-3.5 15t-14.5 37q8 6 14.5 13t15.5 15l15 15q2 2 1 3t-3 0q-13 -8 -25 -15.5t-26 -13.5q-14 26 -38.5 61t-59.5 73q-15 16 -32.5 32t-41.5 32.5t-55.5 32.5t-74.5 33q43 15 91.5 24.5t103.5 9.5q22 0 44.5 -1.5t47.5 -5.5q2 0 2 2
l-19 92l-1 1q-72 -2 -153 -30.5t-154 -77.5l-25 7l-37 12q-1 1 -2 -1t1 -3l47 -27q-15 -11 -30 -24.5t-33 -30.5q-2 -1 -1 -2.5t2 -0.5q21 13 42 23.5t44 20.5q36 -20 57.5 -37t41.5 -37q13 -13 28 -30t31.5 -42.5t36 -60.5t41.5 -84q-78 -23 -163 -23q-25 0 -51 2t-53 7
q-2 0 -2 -1l-37 -64q0 -2 2 -2q46 -12 81 -17t64 -5q18 0 35.5 2t32.5 5q23 5 50 14.5t60 32.5zM403 346q18 -21 34 -40.5t28 -36.5q10 5 17 10t16 11q8 3 14.5 -0.5t6.5 -11.5l37 -37q8 -6 -3 -16l-15 -15l-13 -14h1l-12 -11q8 -20 11.5 -37t2.5 -20l-94 -45h-1
q-8 -2 -14 4l-11 12q-27 -16 -53.5 -25.5t-46.5 -13.5q-15 -3 -33 -5t-36 -2q-59 0 -147 22l-3 2q-1 0 -1 1l-37 36l-1 1q-5 2 -10 10t-1 12l42 72q32 -6 59.5 -8.5t51.5 -2.5q36 0 74.5 5t71.5 13q-19 41 -35.5 71t-31 52.5t-27 38.5t-24.5 28q-13 10 -27 19.5t-32 20.5
q-23 -9 -43 -20t-41 -24h-1l-40 41h-1q-1 -1 -3 1l-2 9q-2 3 -2.5 6t-1.5 5l-1 1q-6 -2 -8 -2l16 15q9 8 17 15t17 15l-17 17l-10 5q0 7 5 17q2 5 5 11l21 -6q9 -5 19 -6l19 -7q74 50 158 77.5t164 29.5l1 -7l39 -39l21 -115q-32 4 -57.5 6t-47.5 2q-35 0 -68 -4.5
t-64 -11.5q38 -23 62.5 -44t44.5 -43q14 -15 25 -28z" />
    <glyph glyph-name="T" unicode="T" horiz-adv-x="529" 
d="M456 584q0 1 -2 1q-68 16 -147 16h-30t-31 -2q-2 13 -6 24.5t-8 22.5q-1 2 -2.5 1.5t-1.5 -2.5v-22t-1 -25q-46 -5 -97.5 -14t-109.5 -24q-1 -1 -0.5 -2.5t1.5 -1.5q29 -2 84.5 -4.5t120.5 -9.5q-1 -51 -4.5 -109.5t-10 -119.5t-17.5 -120.5t-26 -113.5q0 -5 2 -3l113 38
v1q1 17 1.5 38.5t0.5 47.5q0 35 -1 76.5t-4 85t-8 88.5t-13 87q52 -7 102.5 -17t96.5 -24q3 0 3 2zM468 589l40 -39l6 -94q0 -5 -4.5 -8.5t-8.5 -3.5q-44 14 -91.5 23t-95.5 16q14 -83 19 -169.5t5 -155.5q0 -26 -0.5 -51.5t-2.5 -42.5l-118 -40q-7 -4 -11 2l-38 37
q-6 1 -9.5 6.5t-3.5 12.5q14 48 24 100t17 105t11 105.5t6 100.5q-48 5 -87 6.5t-62 3.5h-1q-5 0 -6 3l-37 37q-9 1 -11.5 12t8.5 17q54 15 102.5 24t96.5 14v35q0 11 10.5 15.5t16.5 -6.5l1 -4l37 -36h26q82 0 161 -19v-6z" />
    <glyph glyph-name="U" unicode="U" horiz-adv-x="572" 
d="M396 620q-8 -46 -12 -91.5t-4 -90.5q0 -125 32 -244q-36 -7 -76 -10t-84 -3q-50 0 -104 6q-14 51 -19 89.5t-5 70.5q0 12 0.5 23.5t1.5 22.5q2 57 11 113.5t29 125.5q0 3 -2 3q-28 -2 -55.5 -6t-54.5 -11q-2 0 -2 -2q-5 -51 -7 -92.5t-2 -74.5q0 -60 6 -102.5t17 -75.5
q6 -20 14 -39.5t16 -37.5q-11 3 -23 6t-24 8q-3 0 -3 -1q-3 -8 -5 -16.5t-2 -17.5q0 -21 11 -45l2 -1q53 -11 97 -12q8 -11 16.5 -21t19.5 -21q0 -1 1.5 -0.5t0.5 2.5l-7 20l-8 19q22 0 42 1t42 4q36 4 75 13t89 35q6 -17 11 -31.5t12 -31.5q1 -2 2 -1.5t1 2.5q-2 17 -3 35
t-1 38q14 8 28 17t30 19q2 1 1 2.5t-3 1.5q-11 -5 -26.5 -10t-30.5 -7q0 100 17 211t47 211q0 3 -1 3q-18 3 -38 3q-15 0 -31.5 -1.5t-36.5 -5.5zM395 636q20 2 37.5 4t33.5 2q11 0 21.5 -1t18.5 -2q4 -2 7 -7t4 -8l36 -35q5 -5 5 -8q-26 -84 -41 -174t-21 -178l2 -4t3 -5
l37 -37q2 -2 5.5 -10.5t3.5 -10.5q-15 -11 -26.5 -18t-25.5 -15q0 -17 1 -33.5t3 -32.5q0 -9 -7.5 -13.5t-12.5 0.5l-37 38q-7 0 -10 7l-1 3q-38 -16 -69.5 -22t-62.5 -10q-21 -2 -34 -3.5t-34 -1.5l1 -6l8 -18q0 -2 -9 -5.5t-13 -4.5l-36 35q-23 2 -46.5 4.5t-49.5 9.5
l-39 39q-4 0 -6 1q-15 33 -15 57q0 10 2 19.5t5 17.5q1 7 7 9t10 2l10 -3l12 -4q-11 27 -20 53q-9 33 -15.5 76t-6.5 106q0 36 2.5 79.5t10.5 99.5q57 16 120 19q4 0 8 -4.5t6 -8.5l36 -35q6 -8 6 -13q-20 -69 -28.5 -125t-11.5 -111q-1 -11 -1.5 -22.5t-0.5 -23.5
q0 -23 2.5 -49.5t8.5 -58.5q33 -3 64 -3q38 0 74 2.5t68 7.5q-14 57 -20 114.5t-6 120.5q0 47 4 93.5t12 93.5z" />
    <glyph glyph-name="V" unicode="V" horiz-adv-x="561" 
d="M112 631h-1l-6 -5q-24 -16 -43 -31.5t-31 -33.5v-2q61 -78 92.5 -136t53.5 -101l4 -9l15.5 -31t15.5 -32q-14 -29 -27 -62t-23 -64q0 -3 1 -3q18 -9 37.5 -17.5t39.5 -15.5l1 2q3 14 5.5 27.5t7.5 27.5l24 -66q0 -1 1.5 -1t1.5 2q-3 25 -7.5 49.5t-9.5 49.5
q15 51 35 103.5t47 108.5t63 117.5t85 130.5q1 2 0 3t-3 -1q-34 -33 -67 -69.5t-65.5 -78t-63.5 -89.5t-61 -105q-23 84 -51.5 166t-69.5 165zM107 644q4 0 10.5 -1t8.5 -9l38 -39q0 -2 0.5 -3t0.5 -2q27 -57 49.5 -113t41.5 -112q52 88 110.5 157.5t116.5 126.5
q8 8 15.5 4.5t8.5 -10.5l37 -36q6 -6 1 -17q-49 -69 -85 -129.5t-63 -115.5t-46.5 -106.5t-34.5 -101.5q12 -51 18 -98q0 -8 -7.5 -12.5t-11.5 0.5l-20 20v-2q-2 -3 -7 -6t-7 -3q-47 16 -80 33l-4 2l-37 37q-2 0 -2 1q-8 2 -9 7.5t-1 9.5q11 30 23.5 63t25.5 62l-26 53
l-7 14q-21 43 -54 103t-95 140q17 25 37.5 42t44.5 34z" />
    <glyph glyph-name="W" unicode="W" horiz-adv-x="755" 
d="M399 535q7 29 12.5 56.5t9.5 53.5q0 2 -1.5 2.5t-2.5 -1.5q-13 -39 -32 -85q-13 20 -26 38t-27 38q0 2 -1.5 1t-0.5 -1q11 -26 21.5 -52t20.5 -52q-25 -57 -60 -120t-75 -123q-7 39 -16.5 74t-18.5 64q-18 55 -38.5 106.5t-46.5 93.5q-2 2 -2 1l-80 -46q-2 -2 -1 -3
q53 -76 95 -162t76 -175q-13 -18 -26.5 -35.5t-27.5 -35.5q0 -3 1 -3l87 -26q9 -23 15 -46q1 -2 2 -1.5t1 2.5q-1 14 -1 27.5t-2 25.5q12 22 28.5 58.5t35 82t36.5 97t33 102.5q21 -61 39.5 -128.5t32.5 -134.5q-12 -25 -25.5 -51t-28.5 -53q-1 -1 0 -1.5t3 0.5q14 15 30 31
t29 33q5 -20 8 -38t7 -39q0 -2 1 -2.5t1 0.5q26 23 44.5 43t29.5 40v1q-8 20 -15 39.5t-15 39.5q15 23 32 52.5t36 70.5t41 95.5t48 126.5q1 2 -2 2l-104 -15l-1 -1q-10 -65 -27 -131.5t-47 -141.5q-24 54 -50.5 105.5t-54.5 100.5zM384 601l3 -4q5 16 10 29.5t10 27.5
q3 8 13 5.5t13 -11.5l37 -37q4 -3 4 -9q-4 -28 -9 -55.5t-13 -54.5q31 -53 60 -108q20 59 32.5 115.5t22.5 116.5l115 15q16 0 16 -11l40 -38q4 -3 -1 -14h-1q-25 -71 -46.5 -124.5t-40.5 -94t-35.5 -70.5t-30.5 -53q8 -19 15 -38.5t14 -40.5q-24 -43 -78 -89l-1 1
q-9 -7 -15 1l-37 37q-7 -8 -13.5 -14t-13.5 -13q-10 -5 -15 1l-38 36q-6 2 -8.5 9t1.5 16q4 6 6 9.5t4 7.5q11 21 21.5 40.5t20.5 39.5q-14 68 -33 134q-14 -41 -28.5 -79.5t-28.5 -72t-26.5 -60.5t-21.5 -45q2 -12 2 -25t1 -26l-36 35v-1l36 -34q0 -7 -8.5 -10t-13.5 3
l-36 37q-8 1 -12 8l-3 10l-45 13l-41 40l-1 1q-6 1 -9.5 8t0.5 13q14 17 25.5 32.5t24.5 33.5q-16 39 -35.5 82.5t-41.5 87t-44.5 84.5t-44.5 74q-7 7 -4 12.5t9 11.5l91 49l7 -13l33 -33q29 -48 51.5 -101t40.5 -109q2 -9 4.5 -16.5t4.5 -16.5q28 46 53 92.5t42 85.5
q-8 23 -18.5 47t-19.5 45q-3 3 -3 5t3.5 5t8.5 5q5 3 13 6l9 -14z" />
    <glyph glyph-name="X" unicode="X" horiz-adv-x="542" 
d="M141 119q20 71 42.5 130.5t46.5 110.5q84 -94 143.5 -158t97.5 -96q0 -1 1 -0.5t0 2.5q-51 77 -104.5 156t-107.5 155q35 60 73 113.5t82 101.5q1 1 0.5 1.5t-1.5 -0.5q-53 -38 -98.5 -81.5t-84.5 -92.5l-126 178l-2 1q-37 -31 -57 -68v-2l56 -65l87 -100
q-48 -72 -86.5 -149.5t-62.5 -150.5q0 -2 2 -2q74 5 98 15zM158 600l79 -112q38 46 79.5 85t91.5 75q9 5 15 0.5t6 -12.5l37 -36q7 -5 1 -16q-85 -92 -152 -207q53 -76 105.5 -152.5t103.5 -153.5q5 -10 -1 -15.5t-16 -0.5q-18 15 -42 39l-2 2q-32 26 -79.5 75.5
t-110.5 121.5q-23 -46 -42.5 -101t-36.5 -120l-7 -7q-26 -11 -102 -15q-4 0 -6 1l-4 2l-38 37q-8 2 -9 8t-1 9q26 74 62 150t84 148l-40 44l-41 48l-62 74q12 23 29 43t35 35q8 6 13 3.5t10 -8.5l8 -11l30 -31l-1 1z" />
    <glyph glyph-name="Y" unicode="Y" horiz-adv-x="518" 
d="M102 622q-2 2 -3 1q-26 -21 -42.5 -35.5t-24.5 -24.5v-2q35 -63 82.5 -119t103.5 -111q-23 -54 -36 -114t-11 -121l2 -1q55 -3 101 20q1 0 1 1q-1 20 -1 37v34q0 24 0.5 46.5t2.5 43.5l28 -26l27 -22q2 -1 2.5 -0.5t-0.5 1.5q-13 17 -26 36t-27 37q8 46 22.5 87
t35.5 79.5t47.5 76.5t58.5 79q1 3 -2 3q-60 -48 -115 -113t-93 -145q-38 60 -71 122.5t-62 129.5zM113 628l3 -7l38 -37q20 -46 41 -90t45 -86q39 66 92 127.5t108 104.5q8 4 13.5 0t6.5 -11l36 -36q7 -5 2 -14q-32 -40 -58.5 -77.5t-47 -75t-35 -78t-22.5 -86.5l15 -21
l35 -48q6 -10 -0.5 -15.5t-16.5 -0.5l-41 36q-2 -17 -1.5 -34.5t0.5 -34.5v-37.5t1 -41.5q-28 -14 -58 -19.5t-65 -1.5l-40 39q-1 0 -2 0.5t-3 0.5q-2 67 10 128t34 116q-57 56 -104 112.5t-84 123.5q13 13 32.5 30.5t43.5 37.5q6 6 10.5 4.5t8.5 -6.5z" />
    <glyph glyph-name="Z" unicode="Z" horiz-adv-x="564" 
d="M491 581q-14 4 -30.5 7.5t-33.5 7.5q9 13 17 24t19 23q0 5 -3 2l-23 -22l-24 -25q-85 17 -170 22t-155 6q-1 0 -1 -1q-8 -17 -12 -33.5t-4 -36.5q0 -5 0.5 -11.5t1.5 -13.5q0 -1 3 -1q75 23 154 35.5t164 14.5q-38 -41 -79.5 -88t-82.5 -100.5t-80 -114t-73 -126.5
q-14 -1 -27 -1.5t-27 -2.5q-2 0 -2 -1.5t2 -1.5l46 -7l-18 -42q-1 -1 0 -2h83q2 0 2 1q1 2 2.5 8t3.5 10l7 17q35 -4 73 -5.5t76 -1.5q50 0 106 3l2 1l67 91q1 2 0 3t-3 0q-36 -13 -115 -29.5t-190 -30.5q24 51 53 105t61 107.5t66 106t67 101.5h37.5t38.5 -2zM506 584
l41 -40l-4 -21q-19 2 -40.5 2.5t-39.5 0.5q-57 -81 -111 -168t-98 -174q75 11 129.5 23.5t83.5 22.5q8 3 14 -0.5t8 -9.5l35 -36q-1 0 -1 1l1 -1q8 -8 2 -16l-71 -97q-27 -2 -56.5 -2.5t-55.5 -0.5q-38 0 -72 1t-71 4l-3 -9h-1v-3l-11 -22h-89q-3 0 -6 3l-37 37q-6 1 -10 7
t-2 12v1l4 12l-18 19h-3q-1 0 -1 4.5v10t0.5 10t1.5 4.5h2q1 0 1.5 0.5t2.5 0.5q11 2 19.5 2t19.5 1q54 104 119.5 192t130.5 162q-53 -5 -102.5 -16t-97.5 -25q-4 0 -11 5l-36 36q-10 3 -12 12q-1 7 -1.5 14t-0.5 12q0 21 4.5 41t17.5 44q72 -1 158.5 -7t170.5 -21l18 19
l23 23q9 9 17 5t8 -12l37 -36q5 -6 2 -13q-2 -2 -4.5 -5t-4.5 -5v-4z" />
    <glyph glyph-name="one" unicode="1" horiz-adv-x="251" 
d="M104 644q0 1 -2 1t-2 -1v-6l5 -73q-23 -22 -42 -41t-36 -39v-2l31 -44q2 -2 4 0q11 20 22.5 38.5t22.5 35.5q0 -11 0.5 -19t0.5 -19q0 -92 -12.5 -183.5t-42.5 -201.5q0 -2 2 -2l92 15q2 0 2 2q3 52 3 104q0 87 -7.5 173.5t-18.5 159.5q13 22 26.5 41t26.5 36q1 1 0 2
t-2 0q-33 -22 -58 -44l-10 43zM117 642l28 -28q7 5 13.5 9.5t12.5 8.5q8 4 14.5 0t7.5 -11l37 -36q7 -7 2 -13q-15 -17 -27.5 -35.5t-25.5 -38.5q11 -74 18 -159.5t7 -172.5q0 -26 -1 -53.5t-4 -60.5l-100 -17q-8 0 -11 3l-39 37q-7 2 -8 6t-1 13q23 85 35 156.5t17 140.5v2
l-37 36q-6 2 -8 5l-36 52q17 21 37.5 42t43.5 42l-2 33q-1 9 -1.5 18t-0.5 17v6l3.5 0.5t8 1t8.5 1l4 0.5h5v-5z" />
    <glyph glyph-name="two" unicode="2" horiz-adv-x="564" 
d="M455 404q-36 63 -73 109t-75 78q18 9 37 17l38 16q2 1 1.5 2.5t-2.5 1.5q-25 -4 -49.5 -9t-47.5 -12q-39 28 -73 38q-1 1 -1.5 -0.5t0.5 -2.5q11 -9 21 -20.5t21 -24.5q-47 -14 -96 -38.5t-103 -61.5q-1 0 -1 -1v-1l28 -75q1 -2 3 0q78 89 190 153q37 -49 57.5 -97.5
t32.5 -100.5q-42 -16 -77 -35.5t-66 -43.5t-58.5 -53.5t-55.5 -64.5q-19 -2 -31.5 -5t-25.5 -8l-23 -7q-2 0 -2 -1.5t2 -1.5q14 1 23 0.5t18 -1.5q5 0 9.5 -0.5t9.5 -0.5q-8 -11 -15.5 -22.5t-14.5 -25.5v-2v-1l90 -10q2 0 2 1q6 11 12.5 21.5t12.5 21.5q1 2 2 4.5t3 4.5
q48 -7 104.5 -19.5t107.5 -30.5q1 0 2 1l63 66v3q-29 13 -75.5 21.5t-110.5 8.5h-58q19 26 36 48t34.5 40.5t38 35.5t47.5 32l2 -5l3 -11q0 -2 2 -2l97 35q1 0 1 3l-7 13q-5 6 -7 11q8 4 12 5l32 13q2 1 1 3t-3 1q-9 -4 -19 -6.5t-18 -5.5h1zM78 405q-6 2 -8 7l-32 82
q0 3 1 8.5t8 7.5q48 32 93 54.5t90 39.5q-2 2 -6 7l-20 21l3 3q8 -2 11 4.5t-1 10.5l-6 4l3 3q17 -5 35 -13t37 -22q23 8 47 11.5t47 6.5q6 0 9.5 -3.5t5.5 -8.5l37 -36q3 -4 3 -10.5t-5 -9.5l-20 -9q-9 -4 -20.5 -8t-19.5 -9l8 -9l2 -1q22 -24 45.5 -53t46.5 -62l2 1
q7 1 12.5 2.5t10.5 3.5l4 -6l39 -38q2 -3 6.5 -12.5t3.5 -10.5l-34 -14l9 -18q0 -3 -1.5 -8t-9.5 -6l-97 -34q-5 0 -10 5l-7 5q-29 -18 -50 -38.5t-41 -45.5q53 -3 95 -14t71 -26l-1 -3l40 -41l-78 -82q-52 17 -107.5 30t-101.5 21q0 -1 -0.5 -1t-0.5 -1v-1l-33 -51l-95 12
q-4 0 -7 3l-37 37q-8 2 -11 9.5t2 12.5q2 2 2 4.5t2 2.5v1l-21 22h-2q-1 0 -1.5 3.5t-1 8t-1 8.5l-0.5 4l-1 5l13 4l11 2q13 5 26 8.5t29 6.5q53 66 110.5 113t136.5 78q-15 66 -47 127q-97 -59 -168 -140q-2 -3 -6.5 -4t-9.5 1z" />
    <glyph glyph-name="three" unicode="3" horiz-adv-x="501" 
d="M382 391q5 14 9 28.5t9 30.5q1 2 -1 2.5t-3 -0.5q-8 -13 -16 -25.5t-17 -24.5q-48 29 -99 46q20 37 45.5 76t57.5 79q17 2 33 2.5t32 1.5q2 0 2 2t-2 2q-29 3 -56 3l10 13q6 7 11.5 13.5t12.5 14.5q2 5 -3 2q-10 -7 -19.5 -14.5t-17.5 -13.5l-15 -14q-63 4 -120 5t-92 1
h-38q-1 0 -2 -1l-43 -75q0 -5 3 -3q77 22 144.5 36t129.5 21q-37 -33 -69.5 -65.5t-61.5 -67.5q-24 8 -50.5 11t-54.5 3q-2 0 -2.5 -1t1.5 -1q23 -8 46 -15.5t44 -18.5l-27 -37v-2v-1l68 -22h1l1 1l6 11q2 5 3.5 9t4.5 9q22 -14 42 -29t37 -34q-32 -42 -70 -80t-77 -66
q-35 14 -73 34t-72 44q-1 1 -1.5 0.5t0.5 -2.5q14 -23 38 -50t59 -54l-30 -17q-2 -2 0 -3l72 -51q0 -1 2 1q6 6 20 17l8 7q2 -2 9 -5t12 -5l38 -18h1l1 1l40 67q2 2 -2 2l-20 2.5t-29 5.5q28 31 53.5 67t45.5 76q7 -10 13 -17t13 -16q2 -2 4 0l51 64v3zM413 550
q-23 -30 -43 -59t-37 -58l26 -15l12 18l7 11l-1 -1q2 3 4 5.5t4 5.5q1 2 5.5 0.5t9.5 -3.5q6 -3 13 -5l-1 -5l41 -40l-3 -12q-3 -8 -5.5 -14.5t-4.5 -12.5q5 -7 5 -11l33 -30q5 -5 7.5 -9.5t-2.5 -9.5q-13 -16 -26 -33t-25 -33q-4 -4 -11 -2t-12 7l-15 13
q-14 -25 -31.5 -50.5t-34.5 -47.5l25 -23q5 -8 2 -16l-38 -61q-1 -8 -6.5 -9t-10.5 -1l-39 18l-1 1l-14 7q-2 -2 -2 -2.5t-2 -1.5v1q-3 -3 -5.5 -6t-5.5 -5l-16 -12l-76 52l-33 35l-12 7q-5 5 -5 13t5 14l12 7q-32 26 -51 49.5t-34 45.5q-5 11 2 18.5t18 2.5q32 -23 68 -43
t68 -34q35 26 68 60t62 69l-14 9l-3 -8l-4 -9q-1 -8 -5.5 -8.5t-7.5 -0.5l-68 23l-2 1l-39 38l-6 2v1q-5 4 -7 10t1 11l4 6q-5 2 -9.5 3t-9.5 3l-4 1l-38 38q-1 0 -2 1q-9 4 -7 13.5t10 13.5l-37 36q-6 2 -10 8.5t1 15.5l48 80h45q35 0 89.5 -1t118.5 -3l10 9q18 14 40 32
q8 3 14 -1t7 -12l36 -36q6 -6 3 -15l-8 -7l22 -21q1 0 1 -3.5v-7.5v-8t-1 -4q-14 -1 -30.5 -2t-30.5 -3h-1zM237 520q-28 -6 -56 -13t-57 -14q20 -2 40.5 -4.5t38.5 -7.5q8 11 15.5 20t18.5 19zM351 309l-2 2q2 0 2 -2z" />
    <glyph glyph-name="four" unicode="4" horiz-adv-x="580" 
d="M374 445q0 1 -1.5 1t-1.5 -2q3 -30 3 -59v-23.5t-2 -24.5q-48 -5 -100.5 -15t-112.5 -29q104 96 175.5 188t108.5 162q1 2 -1 2l-114 -19h-2q-51 -103 -102.5 -188.5t-108.5 -155.5q-21 -8 -42.5 -15.5t-44.5 -16.5q-2 -1 -1.5 -2t2.5 -1l50 8l17 3q-10 -12 -18.5 -22.5
t-19.5 -21.5q0 -4 2 -3l60 49h-1q34 4 64.5 5t61.5 1q29 0 57.5 -1t59.5 -4q-6 -35 -15.5 -75.5t-22.5 -93.5q0 -3 2 -2l105 37l1 2q3 13 3 41q0 17 -1 38t-6 44q11 -2 22 -3t22 -3l15 -3q2 0 2 2l22 88q0 2 -2 2q-25 2 -49 3.5t-50 0.5q-8 26 -16 53t-20 53zM58 198
q-7 0 -10.5 5t-1.5 12l-19 19q-9 2 -12 12.5t8 16.5l4 1l19 6q15 5 31 11t32 11q53 68 105 156t106 191l120 20q19 0 19 -12l37 -38q5 -3 -1 -14q-17 -34 -42.5 -73t-60.5 -82l33 -31l1 -3q13 -30 21 -55q17 -1 36.5 -2.5t43.5 -5.5l-1 -4l40 -40l-29 -110l-24 3
q-2 0 -5.5 1t-5.5 1l-18 4q2 -20 3 -37.5t1 -32.5q0 -14 -1 -26t-5 -26l-109 -38l1 -1q-9 -2 -13 1l-38 39q-6 1 -9 6t-3 12l9 35q5 26 10 45.5t10 37.5q-14 1 -26.5 1h-26.5q-57 0 -118 -6q-15 -13 -30.5 -24.5t-29.5 -23.5q-10 -6 -15 1zM361 402l-26 -30t-27 -30
q13 2 26 3.5t26 3.5v2q1 8 1.5 17t0.5 17v8.5t-1 8.5z" />
    <glyph glyph-name="five" unicode="5" horiz-adv-x="534" 
d="M427 256q0 18 -2 35t-9.5 36t-21 40t-34.5 45q2 -1 6.5 -1h6.5q4 -1 8.5 -1h8.5q2 0 2 1l27 79q0 3 -2 3q-26 1 -58 -1t-70 -10l-13 13v-1q-10 8 -19 16.5t-15 12.5q-1 1 -2 0t0 -2l8 -12l21 -30q-23 -5 -49 -12t-52 -15q2 32 5.5 62.5t11.5 59.5q53 -2 109 -7t111 -12
q1 0 2 1l19 72q0 2 -2 2q-8 1 -28.5 0t-51 -4t-68.5 -7.5t-80 -10.5q5 19 11 35q0 3 -1 3l-80 3q-2 0 -2 -2q0 -8 0.5 -14t0.5 -13v-12.5t1 -11.5q-24 -4 -46.5 -9t-42.5 -11q-1 0 -1 -1.5t2 -1.5q15 1 32 1.5t34 0.5h23q2 -40 4.5 -72t9.5 -60q-22 -8 -43.5 -17.5
t-44.5 -20.5q-2 0 -1.5 -1.5t2.5 -1.5q35 10 94 16q3 -12 7 -24.5t10 -25.5q0 -1 1.5 -1t1.5 2q-1 13 -1 25v25q11 0 22 0.5t24 0.5q22 0 47 -1t53 -3q22 -36 31.5 -60.5t11.5 -47.5q3 -27 -2 -55.5t-17 -51.5q-42 -1 -85 -6.5t-82.5 -15.5t-72.5 -24t-56 -32q-2 -1 -1 -2
t3 -1q51 14 98.5 20t90.5 6q39 0 71 -3h-1q15 -10 30.5 -23t31.5 -31q1 -2 2 -1q16 11 28 36q28 -7 46 -18q1 -1 2 0t1 2l20 80l-2 1q-12 1 -22 4q-4 1 -9 1.5t-10 1.5q3 14 5 30t2 30zM100 350q-1 0 -2 1l-39 39h-1q-1 0 -2.5 4t-3.5 9l-3 6q-4 7 -2 9q23 11 39.5 18
t38.5 15q-3 14 -5.5 32.5t-4.5 37.5q-8 0 -17 -0.5t-17 -0.5q-3 0 -7 2l-38 38q-9 2 -11 12.5t10 17.5q17 5 36 9.5t41 8.5v27q-1 3 -0.5 8t3.5 18l91 -3q5 0 8.5 -3.5t5.5 -7.5l20 -20q54 7 99 10.5t73 3.5q8 0 16 -1t15 -2l-2 -5l41 -39l-27 -94q-8 2 -17 3t-18 1
q4 -1 7 -5t4 -8l36 -35q5 -5 5 -10l-33 -88h-13q34 -44 44.5 -78t9.5 -66v-12t-1 -11l39 -38l-22 -90h-1q-2 -4 -8 -7.5t-11 1.5l2 -3q-9 5 -18 8.5t-18 6.5q-13 -22 -37 -35l-29 29l-13 10h-1l-2 4l-17 13q-17 2 -33.5 3t-34.5 1q-42 0 -89 -6.5t-98 -20.5l-43 43
q-2 3 -6 11t-4 12q23 18 56 32.5t71.5 25t81 16.5t84.5 7q9 20 13 45t2 48q-2 13 -6.5 27t-12.5 31q-18 2 -35.5 2h-32.5h-36v-20t1 -20q0 -8 -8 -11t-13 2l-37 37q-5 1 -9 5zM416 505q-76 10 -151 15l4 -3l11 -9l12 -12q35 6 66.5 8t57.5 1zM233 508q-2 -6 -3 -12t-3 -13
l20 5q-2 4 -4.5 7t-4.5 6zM434 100v-2v1v1z" />
    <glyph glyph-name="six" unicode="6" horiz-adv-x="597" 
d="M186 168q1 0 1 1q0 -1 0.5 -1.5t0.5 -1.5zM161 358q0 12 0.5 23.5t1.5 23.5q48 9 98.5 14.5t111.5 5.5h23q4 -7 6 -14t5 -15l3 -8q6 -23 11.5 -52.5t5.5 -64.5q0 -13 -0.5 -26t-2.5 -28q-54 -2 -115.5 -13.5t-121.5 -34.5q-15 64 -20.5 109t-5.5 80zM477 422q3 0 1 2
l-58 86l-2 1q-2 0 -3.5 -0.5t-3.5 -0.5q-9 -2 -20 -2.5t-19 -2.5q-13 13 -26 23t-24 17q-2 1 -3 0t1 -3l29 -33q1 -2 2 -3t2 -3q-49 -8 -94 -18.5t-86 -26.5l2 7q4 17 9 34.5t14.5 40t26.5 51t44 67.5q1 3 -3 3q-47 -39 -77 -72t-48.5 -61.5t-28.5 -53.5t-17 -48
q-12 -7 -20.5 -15t-15.5 -16q-5 -5 -11.5 -10.5t-17.5 -13.5q-2 -2 1 -2q14 2 21 4.5t12 5.5q9 4 23 8q-2 -9 -2 -19.5t-1 -18.5q-2 -15 -3 -31t-1 -30q0 -41 6 -79.5t20 -77.5l-32 -20q-1 -1 -0.5 -3t1.5 -1l21 7l15 5q3 -7 6 -12t6 -12q0 -1 1 -1h1l76 24v3l-5 21
q76 15 152 15q17 0 32.5 -1t30.5 -3q-1 -3 -2 -11t-3 -14q0 -3 1 -3l77 -24q2 0 2 1q2 8 4 17t4 19q1 -1 3 -1q6 -2 13 -4.5t13 -5.5q0 -1 0.5 0t0.5 2q3 31 -3 84q0 2 -1 2h-11.5t-10.5 1q-3 55 -19.5 108t-43.5 100zM320 610q-26 -38 -42.5 -65.5t-25.5 -48.5
q19 5 38.5 8.5t39.5 8.5l-18 21q-12 12 -3 20t20 3q9 -6 21 -16t25 -21q5 0 11 1t10 1l15 1h4q1 0 3 -0.5t4 -0.5h5l7 -10l35 -35l60 -89h-1q5 -5 2 -12t-11 -7l-24 1q21 -39 35 -81.5t19 -86.5l24 -23q5 -32 5.5 -57.5t-4.5 -51.5l-1 1l-28 10l-6 -25q-1 -5 -6 -7t-7 -2
l-77 25q-5 0 -8 3l-29 29h-21q-35 0 -69.5 -3t-70.5 -10q1 -3 2 -5t2 -6q0 -4 -2 -9t-10 -6l-74 -24q-6 0 -11 5l-16 16l-22 -8l-41 42l-11 -4l11 10q-2 2 -5 9t-4 10l-1 2l22 14q-14 38 -18.5 74.5t-4.5 76.5v30l-1 1l-37 36q-10 3 -13 13t7 15l-1 -1q18 12 25 19l4 7
q15 16 33 27q7 23 18.5 48.5t31 54.5t49.5 62t76 72q8 4 15 -0.5t7 -12.5l35 -35q-1 0 -1 0.5t-1 0.5l2 -1q7 -7 3 -14zM213 315q0 -47 12 -119q48 14 95.5 22t91.5 11q2 11 2 21.5v20.5q0 29 -4 54.5t-9 45.5q-53 -1 -98.5 -5.5t-87.5 -12.5q-1 -10 -1.5 -19t-0.5 -19z
M433 371l-1 1q1 0 1 -1z" />
    <glyph glyph-name="seven" unicode="7" horiz-adv-x="548" 
d="M476 610l-30 -2t-32 -2l22 26t22 24q3 5 -2 3q-36 -23 -75 -54q-26 -1 -52 -1.5t-50 -0.5q-82 0 -142 3.5t-76 6.5q-2 0 -2 -1l-26 -83q0 -3 2 -3q43 3 81 7t75.5 10t75 14t78.5 17q-32 -33 -50.5 -58.5t-33.5 -48.5q-11 -16 -28 -40t-37 -52q-28 -5 -56 -12t-54 -18
q-2 -1 -1.5 -2t2.5 -1q14 1 30.5 1.5t33.5 0.5h24q-26 -42 -55.5 -96t-65.5 -126l1 -2q6 -5 29.5 -13t63.5 -21q2 0 2 1q23 55 52.5 122t62.5 130q17 -1 34.5 -2t37.5 -3l1 1l28 44q3 3 -2 3q-37 5 -74 3q11 19 19 36.5t17 35.5q14 33 31 66t40 62l8 2q18 5 36.5 9.5
t35.5 10.5zM35 514q-6 0 -10.5 6t-4.5 11l33 97q10 -2 31.5 -4t51.5 -4t66.5 -3t76.5 -1q22 0 43 0.5t44 0.5h11q20 17 37.5 29.5t35.5 23.5q9 5 15.5 1.5t7.5 -11.5l36 -36q-1 0 -1 1l1 -1q5 -7 1 -16l-6 -8l24 -22l2 -20q-16 -6 -36.5 -12.5t-37.5 -9.5l-8 -2l-4 -1
q-20 -26 -36 -59t-30 -64l-8 -17q2 -2 4.5 -4t3.5 -5l38 -38q2 -3 3 -7.5t-3 -7.5h1l-33 -51q-38 5 -69 6q-33 -63 -62 -128.5t-51 -117.5q-2 -5 -6.5 -6t-6.5 -1q-80 25 -97 35l-37 36q-5 1 -8 5q-5 5 -6 9t-1 7q27 54 48 93t39 71q-3 0 -5 4l-37 36q-10 1 -13 12t8 16
q26 11 54.5 18t54.5 12q3 5 6.5 10t6.5 9l16 23l12 17l21 29h-1l10 14q0 1 1 2.5t2 3.5q-45 -9 -89.5 -14t-96.5 -8q-4 0 -6 5z" />
    <glyph glyph-name="eight" unicode="8" horiz-adv-x="624" 
d="M166 216q1 0 1.5 -0.5t1.5 -0.5q-1 0 -1 -1zM246 385q19 30 41 58.5t43 51.5q31 -30 54 -61t41 -57q21 -34 37 -75t23 -96q-59 -14 -135 -14q-40 0 -85 5t-96 18q20 58 38.5 97.5t38.5 72.5zM325 587q56 18 114 21q-23 -10 -45 -22.5t-40 -23.5l-18 16v-1zM507 211
q-1 50 -11 95.5t-25 84.5q-14 37 -34 71.5t-60 76.5q22 18 45 34t54 35h19t19 -2q2 0 2.5 1t-1.5 2q-4 3 -10 5t-11 4l5 4l40 26q2 1 1 2.5t-3 0.5l-6 -2q-14 -6 -28.5 -12.5t-26.5 -12.5q-48 14 -102 14q-48 0 -97 -12l-6 5q-9 7 -18.5 14t-20.5 14h-2q-23 -8 -40 -17.5
t-30 -19.5v-4l24 -15l10 -6q-13 -5 -25.5 -13t-25.5 -16q-2 -2 0 -3l55 -54q1 -2 2 -1l28 22t30 22q19 -14 32 -26l2.5 -2.5t3.5 -2.5q-34 -24 -59 -48.5t-48 -49.5q-38 -42 -68 -82.5t-53 -94.5l-23 9q-6 4 -18 9q-2 1 -3 -0.5t1 -2.5q5 -4 10 -7l10 -6l8 -6t11 -7
q-5 -14 -10.5 -28.5t-10.5 -30.5v-1q0 -1 1 -1q21 -18 42.5 -31t47.5 -24h1q6 17 10.5 31t9.5 28q1 2 2 6t3 7q98 -42 182 -59t148 -16v-28q0 -2 1.5 -2.5t2.5 1.5q0 5 1 10q1 4 1.5 8.5t1.5 8.5l1 2q12 1 23.5 1.5t21.5 1.5q4 0 1 3zM80 125l-25 26q-5 3 -9.5 6.5t-8.5 7.5
v-1q-4 2 -5 7t-1 9l3 10l4 11q2 8 3 13.5t5 13.5l-16 16q-4 2 -11 9q0 3 4.5 13.5t7.5 11.5q1 0 2 -1t3 -2l4 -1q3 -1 7 -2.5t7 -3.5l7 -2q23 49 52 88t66 80l6 5l34 36l-20 21l-2 -2l-75 77q11 7 22.5 14.5t22.5 12.5l-9 6q-6 6 -6 16t5 15q11 11 29.5 19.5t48.5 17.5
q10 -7 21.5 -15.5t22.5 -16.5q23 6 46.5 8.5t48.5 2.5q52 0 102 -14l50 23l7 3q0 1 2 -2t4 -7l38 -37q2 -2 5 -8.5t5 -10.5l1 -2h-1l-26 -17l6 -5q5 -6 1 -13.5t-13 -7.5q-8 2 -17.5 2.5t-17.5 0.5q-26 -17 -46 -30t-40 -30q35 -39 55 -74t34 -71q15 -38 25.5 -85t11.5 -96
l37 -84l-2 1q4 -4 0.5 -10.5t-7.5 -7.5q-8 -3 -17 -3.5t-20 -1.5q-2 -10 -3 -14t-2 -6q-3 -7 -9.5 -7.5t-10.5 3.5l-26 25q-60 3 -133 19.5t-158 52.5q-1 -1 -1 -2q-5 -14 -10 -27t-9 -29q0 -8 -5.5 -9.5t-9.5 -1.5q-27 11 -49.5 25t-43.5 31l-1 1q-1 0 -3 2zM297 336
q-16 -25 -30.5 -54t-29.5 -67q32 -5 60.5 -7.5t52.5 -2.5q33 0 63.5 3t57.5 8q-8 48 -23 85.5t-34 67.5q-11 14 -22 30t-24 33q-19 -22 -37.5 -46.5t-33.5 -49.5zM81 124l-1 1z" />
    <glyph glyph-name="nine" unicode="9" horiz-adv-x="493" 
d="M345 400q-5 -17 -13 -35.5t-19 -36.5q-36 27 -81.5 49.5t-89.5 33.5q-5 24 -6 45.5t-1 42.5q0 17 0.5 31.5t2.5 30.5q31 4 69.5 7t81.5 3q21 0 41 -1t40 -3q1 -11 1.5 -20.5t0.5 -17.5q0 -40 -7.5 -69.5t-19.5 -59.5zM364 639q-1 2 -3 1t-1 -3q4 -11 4 -18.5t2 -15.5
l1 -10q-48 18 -103 28.5t-110 10.5q1 5 3.5 11t4.5 12l5 18q1 2 -1 2.5t-3 -0.5q-5 -9 -11 -21.5t-11 -21.5q-17 -1 -33 -3t-33 -5q-2 0 -2 -2l-4 -70q0 -2 3 -2q6 2 17 4t22 3q-14 -38 -22 -71.5t-10 -65.5q-12 1 -22.5 0.5t-21.5 -0.5q-1 0 -1 -2l-5 -62q0 -2 2 -2h23.5
t24.5 -2q2 -11 3.5 -21.5t3.5 -21.5q0 -2 2 -2l83 -4l1 2l-1 6q-3 7 -5.5 16t-4.5 15q32 -7 63.5 -17t66.5 -25q-21 -28 -56.5 -58.5t-89.5 -65.5v-2l64 -64q1 -1 2 -1q57 38 89.5 76t54.5 84l5 -3l32 -18q1 -1 2 0t0 2q-7 8 -16 17.5t-16 17.5q3 7 6 16.5t6 15.5
q11 32 19 69.5t8 77.5q0 25 -2.5 50t-10.5 51l17 -1l21 -3q1 0 1.5 1.5t-0.5 2.5q-11 6 -22 11l-22 10q-8 26 -19 53zM379 637l37 -37l7 -19l10 -6l-1 1q7 -3 8 -10l37 -36q5 -6 2 -14t-11 -8l-20 3h-4q5 -23 7 -45.5t2 -43.5q0 -42 -8 -80t-19 -71l-4 -9q-2 -9 -5 -18l5 -7
q8 -7 14.5 -14t8.5 -9q5 -10 -1.5 -17t-14.5 -2l-27 17q-22 -45 -57.5 -83t-94.5 -76l-41 41q-1 0 -1 -0.5t-1 -0.5l-81 86q47 28 77.5 52t51.5 44l-37 10l5 -14v-22l-104 7l-40 39l-4 1l-2 6q-5 0 -13 2l-38 39q-5 0 -7.5 0.5t1.5 0.5l7 87q14 2 25 2h19q1 21 5.5 42.5
t12.5 46.5l-17 17q-11 4 -11 13l5 82q19 4 38 7t34 5l9 18q2 3 4.5 8t4.5 8q0 1 4.5 0t9 -3l9 -4t4.5 -3l-1 -2l24 -25q38 -2 75.5 -10t74.5 -21v1q-1 3 -2 8t-3 12q1 2 6 4.5t10 4t9 2.5t4 0zM333 404q10 26 17.5 52.5t8.5 60.5q-7 1 -13 1h-14q-39 0 -75.5 -2.5
t-66.5 -6.5q-2 -13 -2 -25.5v-26.5v-46q32 -13 62.5 -29t58.5 -35q8 14 13.5 28.5t10.5 28.5z" />
    <glyph glyph-name="colon" unicode=":" horiz-adv-x="273" 
d="M27 569q-2 -2 1 -2q24 -6 48 -13t48 -15q1 0 2 1l62 66q2 2 0 2q-18 9 -45 15.5t-62 11.5q-1 0 -2 -1zM29 114q-1 0 -0.5 -0.5t1.5 -0.5q25 -6 49 -13t48 -15q1 0 2 1l62 66q2 0 0 2q-37 18 -108 27q-1 0 -2 -1zM78 194q77 -6 133 -40l-2 -2l41 -41l-76 -81
q-26 9 -52 16.5t-51 12.5l-1 1q-2 0 -3 1t-2 1l-37 37q-8 3 -11 10t3 14zM75 648q80 -8 134 -40l-3 -2l41 -41l-76 -81q-26 9 -51.5 16.5t-51.5 12.5q-2 0 -5 3l-38 37q-8 3 -10.5 10.5t2.5 13.5z" />
    <glyph glyph-name="semicolon" unicode=";" horiz-adv-x="259" 
d="M70 159q-12 -32 -17 -62.5t-5 -62.5q0 -23 3 -44.5t8 -43.5q3 -3 3 0q48 122 117 185q2 2 0 2q-26 13 -52 19.5t-56 6.5h-1zM29 563q-2 -2 1 -2q24 -6 48 -13t48 -15q1 0 2 1l62 66q2 2 0 2q-18 9 -45 15.5t-62 11.5q-1 0 -2 -1zM71 172q61 -1 130 -38l-2 -2l41 -42
q-40 -35 -71.5 -84t-55.5 -110q-6 -10 -17 -2l-35 36q-8 1 -15 13q-6 22 -8.5 44t-2.5 47q0 65 25 133zM77 642q80 -8 134 -40l-3 -2l41 -41l-76 -81q-26 9 -51.5 16.5t-51.5 12.5q-2 0 -5 3l-38 37q-8 3 -10.5 10.5t2.5 13.5z" />
    <glyph glyph-name="comma" unicode="," horiz-adv-x="240" 
d="M56 148q-11 -32 -16.5 -62.5t-5.5 -62.5q0 -45 12 -88q2 -2 4 0q46 121 115 185q2 2 0 2q-26 13 -52 19.5t-55 6.5h-2zM57 161q63 -1 130 -38l-2 -2l41 -42q-79 -72 -126 -194q-8 -11 -16 -2l-36 36q-10 2 -15 13q-6 22 -8.5 44t-2.5 47q0 65 25 133z" />
    <glyph glyph-name="period" unicode="." horiz-adv-x="264" 
d="M29 98q-1 0 -0.5 -0.5t1.5 -0.5q25 -6 49 -13t48 -15q1 0 2 1l62 66q2 0 0 2q-38 18 -108 27q-1 0 -2 -1zM78 178q79 -7 133 -40l-2 -2l41 -41l-76 -81q-26 9 -52 16.5t-51 12.5l-1 1q-2 0 -3 1t-2 1l-37 37q-8 3 -11 10t3 14z" />
    <glyph glyph-name="question" unicode="?" horiz-adv-x="548" 
d="M141 111q-3 -3 2 -3q23 -5 47 -12t49 -15q1 0 2 1l61 66q2 0 0 2q-17 10 -44.5 16.5t-62.5 10.5q-1 0 -2 -1zM420 419q-32 56 -67 98.5t-70 71.5q19 10 38 17.5t38 15.5q1 1 1 2.5t-2 1.5q-25 -4 -50 -8.5t-48 -12.5q-19 14 -36.5 23.5t-34.5 14.5q-2 1 -2.5 -0.5
t0.5 -2.5q20 -17 41 -44q-91 -30 -199 -101q-1 0 -1 -3l28 -73q1 -2 3 0q78 87 190 152q32 -42 51 -82t32 -85q-34 -8 -58 -17.5t-40.5 -19t-28 -19.5t-19.5 -19q-26 -25 -35.5 -48t-13.5 -33q0 -1 -0.5 -2t-0.5 -2q0 -2 2 -2l101 -8q2 0 2 1q14 26 39.5 58.5t63.5 57.5
q1 -8 5 -17q0 -2 3 -2l95 35q1 0 1 3l-4 8q-4 6 -7 11t-5 11q1 1 4 2t5 3l35 16q2 1 1.5 2t-2.5 1zM189 190l-21 2l-39 40l-6 1v8q0 6 2 12l2 -2l1 1q-1 2 -1 5q4 12 14.5 33.5t34.5 46.5q19 19 49 39.5t91 36.5q-9 26 -18.5 48.5t-21.5 45.5q-49 -30 -93.5 -67.5
t-87.5 -82.5l-41 40l-1 -2l-38 96q0 4 1 9.5t8 6.5h-1q50 32 94 55.5t89 39.5q-6 10 -12.5 16t-12.5 12q0 4 4.5 14t6.5 11q17 -7 35 -14.5t35 -21.5q23 8 47.5 12.5t47.5 6.5q12 0 15 -12l38 -37q3 -4 3.5 -9t-4.5 -8l-27 -11q-11 -5 -18 -7.5t-18 -8.5l14 -15v-1
q40 -41 78 -96l36 4q5 0 9.5 -3.5t5.5 -8.5l37 -37q4 -4 3.5 -10.5t-6.5 -8.5l-34 -16l-1 -1l2 -4l5 -7l6 -13q0 -4 -1.5 -8.5t-9.5 -5.5q-23 -9 -47 -18l-48 -18q-2 0 -5 1.5t-5 4.5l-7 6q-30 -23 -53.5 -54t-38.5 -55l-74 7q63 -9 111 -38l-3 -2l41 -42l-77 -79
q-26 8 -51 15.5t-50 12.5q-4 2 -6 4l-38 37q-8 2 -10.5 9.5t2.5 14.5z" />
    <glyph glyph-name="D" unicode="D" horiz-adv-x="635" 
d="M306 601q30 -23 51 -49t37 -51q28 -40 49.5 -83t39.5 -94q-40 -42 -72.5 -63.5t-69.5 -35.5q-16 -6 -34.5 -12.5t-42 -11t-53.5 -7.5t-69 -3q6 38 10.5 73.5t9.5 67.5q5 42 8 84t3 102v31t-1 35q25 6 56 10.5t78 6.5zM27 535q-2 -1 -1 -2t3 0q19 8 31 13t32 13
q11 -108 15.5 -198.5t4.5 -168.5h-11t-13 1q-1 0 -1 -1q-7 -18 -14.5 -36.5t-15.5 -36.5q-1 -1 0 -2t2 -1q14 -1 26.5 -1h26.5v-14t-1 -10q0 -3 -0.5 -6.5t-0.5 -8.5q0 -2 1.5 -2.5t2.5 1.5l7 19q3 4 6 21q69 0 119 15t89 38q46 28 84 65.5t67 69.5v-11q0 -2 3 -2l74 26v2
q-4 32 -17 64l24 49q1 1 -1 2t-3 -1q-6 -8 -13.5 -16.5t-13.5 -16.5q-4 11 -8.5 19.5t-9.5 19.5q-31 55 -73 98q-35 41 -82 68q-8 4 -16.5 8.5t-16.5 7.5l-1 1l-5 29q0 2 -2 2l-17 -4q-8 -1 -16.5 -2.5t-16.5 -3.5q-13 4 -27 8t-28 7q-2 1 -2.5 -1t1.5 -3l31 -16
q-21 -5 -41 -11t-38 -14v16q0 6 -0.5 11.5t-0.5 10.5q0 2 -1 2q-11 -3 -21 -5t-21 -4q-21 -6 -42 -9v-2l2 -28q0 -14 3 -27q-13 -7 -22 -13t-19 -13zM41 561q9 7 14.5 10.5t11.5 5.5l9 7q0 5 -1 9.5t-1 9.5l-2 44h11h7h-1l34 8q-3 1 6.5 2.5t15.5 3.5l12 2h26v-6l21 -20
l10 4l-1 1q-2 1 -1 5.5t3 9.5q2 6 5 13q13 -2 27 -5.5t29 -9.5q5 1 10.5 2.5t11.5 2.5l9 2l31 1l1 -6l40 -39l1 -8q22 -13 41.5 -30t36.5 -35l18 -20l10 -10l13 -15q13 -15 26.5 -32t25.5 -35l11 13l-2 -8l2 -2q6 -3 13 -6t6 -5v-1l41 -40v-1l-22 -44q11 -29 17 -72l-84 -30
q-4 0 -9 4q-27 -31 -62 -65t-78 -60q-39 -22 -89.5 -37.5t-115.5 -17.5l-5 -14l-7 -18q-3 -7 -10 -7.5t-12 4.5l-36 37h-2h-6l-5 4l-37 36l-2 1q-5 2 -9 7.5t-2 11.5h-1q8 19 18 42t18 43q6 -2 10 -2h9q0 62 -3.5 130.5t-11.5 147.5l-9 -4l-42 40h-1q-2 0 -4 3.5t-5 8.5
q-4 5 -7 13zM384 494q-9 13 -19.5 26.5t-22.5 27.5q-38 -2 -65.5 -6t-50.5 -9q1 -14 0.5 -29.5t-0.5 -27.5q0 -60 -3.5 -103.5t-8.5 -84.5l-10 -81q47 2 77.5 11t54.5 18q32 13 65 34t67 56q-33 91 -84 168z" />
    <glyph glyph-name="exclam" unicode="!" horiz-adv-x="265" 
d="M160 620l-104 7q-2 0 -2 -2q-5 -38 -8 -74t-3 -68q0 -161 64 -250q1 -1 2.5 -1t1.5 2q-2 23 -3 45t-1 44q0 170 55 294zM28 110q-3 -3 2 -3q24 -5 48 -12t49 -15q1 0 1 1l62 65q1 1 0 3q-18 9 -45.5 16t-62.5 11q-1 0 -1 -1zM171 626l38 -38l5 -15q-26 -63 -40 -136
t-14 -157q0 -42 3 -88q0 -8 -7.5 -12t-12.5 1l-38 38q-6 0 -9 7l1 -1q-67 96 -67 258q0 65 15 158l123 -7zM77 189q38 -4 72.5 -13.5t61.5 -26.5l-3 -3l41 -41l-76 -79q-25 7 -52 15t-51 13q-4 2 -6 4l-38 37q-7 2 -9.5 9.5t2.5 14.5z" />
    <glyph glyph-name="zero" unicode="0" 
d="M408 372q4 -23 5.5 -47t1.5 -49q0 -30 -3 -63q-35 3 -66 3h-20t-20 -1q-26 -1 -57 -4t-65 -13q-34 76 -43 133t-10 105q-1 19 -0.5 36t1.5 36q54 23 108 43.5t108 35.5q27 -57 40.5 -109.5t19.5 -105.5zM411 668q0 1 -3 1q-7 -3 -25.5 -13t-47.5 -27q-31 -2 -57 -5.5
t-45 -6.5l-17 -3l-9 -2q-17 -2 -30 -4.5t-26 -7.5q4 8 7.5 18.5t8.5 20.5q1 2 -0.5 3t-2.5 -1q-7 -11 -13.5 -22.5t-11.5 -22.5h1l-3 -4v1q-15 -7 -36 -18.5t-52 -30.5q-1 0 -1 -2q4 -33 19 -64q0 -1 1 -1h1l22 12q-10 -34 -14 -64.5t-5 -60.5q-1 -8 -1 -17v-17
q0 -39 5.5 -79t21.5 -85q-11 -5 -19 -9.5t-16 -9.5l-29 -16q-2 -1 -1.5 -2.5t2.5 -1.5l17 5q17 5 29 8.5t23 6.5l14 -36q0 -1 3 -1l93 28q1 0 1.5 1t-0.5 1q-3 5 -6 9t-5 9q5 1 9 1h7h32q30 0 66.5 -3t79.5 -15l-1 -6q-2 -7 -4.5 -14.5t-4.5 -14.5q-2 -4 2 -2q9 8 14.5 15
t11.5 16q13 -3 25 -7.5t27 -9.5q3 0 3 1l31 81l-1 2q-26 5 -53 7q10 34 17 73t10 76q2 12 2.5 26t0.5 26q0 49 -9.5 97.5t-30.5 102.5q18 4 34 7t35 6q1 0 1 1.5t-1 1.5q-43 5 -80 6q-6 16 -16 36zM450 645q28 -2 57 -6q0 -1 0.5 -1.5t0.5 -1.5l43 -43h-1q1 -1 1 -11.5
t-1 -12.5q-14 -1 -28 -3.5t-27 -6.5q19 -50 27.5 -97t8.5 -95q0 -12 -0.5 -27t-2.5 -26q-4 -52 -17 -107q2 -2 2.5 -3.5t1.5 -3.5l34 -33q2 -2 4.5 -5.5t2.5 -5.5l-32 -81q-1 -8 -5.5 -9t-8.5 -1q-14 5 -23 8t-23 7q-5 -8 -11 -14l-13 -13q-13 -7 -17 1l-37 36q-13 0 -13 10
q-21 4 -41.5 5t-37.5 1h-31l4 -4l-2 1q3 -5 1 -10t-6 -7l-96 -30q-2 0 -5 0.5t-6 3.5l-28 27l-6 -2l-22 -7l-17 -4q-7 0 -10 4l-36 36q-10 1 -13 11.5t7 16.5l28 15l7 5h-1q5 3 8 5t11 5q-14 43 -18.5 81.5t-4.5 76.5v16.5t1 18.5q2 21 3.5 44.5t6.5 46.5l-5 7l-3 -2
q-11 21 -16.5 42t-7.5 47q29 18 50 30t38 21l2 2q5 10 12 22t14 22q4 0 14.5 -5t11.5 -7q0 -1 -0.5 -1t-0.5 -1l12 -10h1l13 3l11 1l16 2h-1q18 4 45 8t56 6q26 14 47 25t30 14q5 0 10 -1.5t6 -9.5zM396 371q-5 38 -13 76t-23 77q-43 -14 -89 -32t-87 -35q-1 -16 -1 -31.5
v-31.5q1 -37 7 -80.5t23 -95.5q25 6 48.5 7.5t43.5 1.5q8 1 21 1h20h27.5t27.5 -1q2 14 2 25.5v23.5q0 24 -2 47.5t-5 47.5z" />
    <glyph glyph-name="a" unicode="a" horiz-adv-x="561" 
d="M261 533q0 -1 -0.5 -1.5t-0.5 -1.5v-1q-2 0 -2 4h3zM323 328q-32 -6 -71.5 -11.5t-71.5 -9.5q14 54 37 114.5t43 107.5q14 -41 31.5 -96t31.5 -105zM48 88q0 -2 2 -2l93 6q2 0 2 1q2 10 3.5 21t2.5 23q6 37 10.5 76.5t12.5 67.5q11 -1 25 -1.5t28 -0.5q26 0 56 1t55 2
q11 -48 20 -102.5t14 -101.5q0 -2 2 -2l86 44q1 0 1 2l-3 15q-3 12 -7 29.5t-8.5 37t-11 40t-13.5 38.5h22q5 0 11.5 0.5t12.5 0.5q2 0 2 1l33 70q3 3 -2 3q-25 -2 -52 -6.5t-54 -9.5q-5 13 -11 26t-11 25q-17 39 -41 88.5t-50 89.5q12 25 21.5 41.5t23.5 37.5q1 2 0 3
t-2 -1l-18 -19q-10 -9 -21 -19.5t-19 -20.5q-6 8 -12.5 14.5l-14.5 14.5q-4 4 -9.5 10t-13.5 18q-1 2 -2.5 1t-0.5 -2l6 -14q5 -11 12.5 -26t16.5 -39q-18 -25 -36.5 -56.5t-36.5 -66.5t-35 -71.5t-32 -70.5q-20 1 -38 3t-38 7q-2 0 -2 -1.5t1 -2.5q14 -7 32 -12.5t39 -9.5
q-7 -18 -13.5 -40.5t-12.5 -47.5t-11 -50t-10 -47zM39 106q2 7 4 15t3 15l3 16q5 26 11 52.5t13 50.5l-7 3l-2 3l-37 35l-4 3q-11 5 -6.5 16t15.5 11q18 -5 33.5 -6.5t31.5 -2.5q29 65 64 134t70 120q-8 18 -14.5 32t-11.5 22l-8 19q3 4 14 10q5 3 11 5l9 -14l33 -32v-1
l24 24l6 5l18 19q7 6 12.5 4.5t7.5 -6.5l40 -40q3 -2 4 -7.5t-2 -9.5q-14 -22 -22.5 -36.5t-19.5 -35.5q24 -38 46.5 -85t39.5 -85q20 3 38.5 5.5t39.5 4.5q12 0 14 -11l38 -38q6 -5 2 -13h1l-37 -77h-20h-19q13 -33 21 -67.5t13 -57.5l1 -9l4 -24l-92 -47h-1q-9 -2 -14 5
l-36 35q-5 2 -8 5.5t-4 6.5q-4 32 -9.5 71.5t-13.5 77.5q-17 -1 -34.5 -1h-31.5h-24t-21 1q-5 -20 -8.5 -44t-6.5 -50l-6 -39q-1 -8 -2 -16.5t-2 -14.5l-5 -24l-116 -3l-40 40h-7zM284 417q-8 -21 -16.5 -43.5t-14.5 -44.5q13 2 26.5 4t26.5 5l-2 12q-6 18 -10.5 34.5
t-9.5 32.5zM279 591q5 -5 8 -6z" />
    <glyph glyph-name="b" unicode="b" horiz-adv-x="583" 
d="M232 561q17 2 35 3t35 1q14 0 26 -0.5t25 -2.5q9 -18 12 -32.5t2 -25.5q-2 -30 -19 -61q-2 -5 -4.5 -9t-7.5 -10q-14 8 -31 17t-35 17q-1 1 -2 -1t1 -3q17 -11 32 -22.5t25 -20.5q-12 -12 -34.5 -31.5t-60.5 -45.5q-2 -2 0 -3l53 -58q1 -2 2 -1q26 17 47.5 36t38.5 38
q12 -24 24 -55.5t24 -69.5l-6 -7l-8 -7q-15 -13 -31 -27.5t-36 -40.5q-29 11 -79 34.5t-110 55.5q5 32 9 58.5t7 52.5q0 2 0.5 4.5t0.5 4.5q3 21 5 42t3.5 45t2.5 52.5t1 64.5zM99 537q7 -81 11 -152.5t6 -137.5q-11 6 -20.5 12t-20.5 12q-1 1 -3 -1q-16 -29 -29 -61
q0 -2 1 -2q16 -8 34 -16.5t37 -16.5v-39q1 -14 1 -27t-2 -30q0 -1 1.5 -1.5t2.5 0.5q5 21 8.5 36.5t6.5 30.5l4 23q39 -13 86 -23.5t101 -23.5l-25 -34q-3 -3 1 -3l60 -9h2q15 33 31 60.5t35 55.5l3 -9q2 -9 5 -12q1 -1 2 0l34 32v-1l37 19q1 0 1 3q-4 11 -9.5 23t-11.5 22
l11 15q4 5 7.5 9t6.5 9q2 2 -1 2l-11 -10l-18 -15q-16 26 -36 50t-46 51q23 27 28 52q3 12 1 27.5t-11 40.5q-5 11 -11.5 25t-20.5 32q20 -6 37 -14q3 -2 3 3q-25 57 -91 100q-8 -2 -17 -3.5t-17 -3.5q-2 2 -2.5 3t-1.5 2l-27 19q-2 1 -2.5 0t0.5 -2l10 -15q1 -2 3 -5.5
t4 -5.5q-29 -6 -55.5 -14.5t-52.5 -18.5q-1 7 -1 14.5v15.5q0 2 -3 2l-80 -27v-2l1 -20q2 -10 2 -15q-25 -13 -39 -26q-13 -10 -32 -21q-1 -1 -1 -2.5t2 -1.5l24.5 7t18.5 6h-1zM42 193q-1 0 -3 2q-6 2 -7 7.5t-1 8.5q7 18 14.5 34t16.5 33q5 4 9.5 6.5t9.5 -2.5v1l7 -5
l8 -6t3 -2l4 -1q-2 50 -4.5 96.5t-6.5 103.5l-18 -5q-5 0 -10 5l-37 36q-8 2 -11.5 12t6.5 14h-1q12 8 18.5 13t10.5 7q5 5 15.5 12t20.5 12q0 1 -0.5 0.5t-0.5 0.5q-2 2 -2 6l-1 31l92 31q3 0 9.5 -4t7.5 -9l9 -9q17 5 33.5 10t32.5 10q-4 6 -8 10q-5 10 3 18t17 3l26 -20
l3 -3l33 8q46 -32 75 -69l17 -17q33 -33 47 -67q4 -8 -1.5 -14t-14.5 -2l-3 2h-1q0 1 -2 1q4 -10 7.5 -16.5t6.5 -13.5v-3q11 -27 13 -44t-1 -30q-5 -22 -24 -49l3 -4q8 -8 15.5 -16t14.5 -16l2 2l11 11q9 5 16.5 3t7.5 -11l37 -38q6 -5 -1 -19l-14 -17h-1l-7 -7
q5 -11 10 -22.5t10 -21.5v-8.5t-8 -5.5l-36 -17l-42 -37l-12 9q-15 -23 -28.5 -47.5t-27.5 -54.5l-67 11q-4 2 -6 4l-36 35l-4 1q-8 3 -10 15q-28 6 -51 11.5t-46 14.5l-3 -13q-4 -15 -7 -30t-8 -35q-4 -8 -10.5 -8t-11.5 4l-37 37q-11 2 -11 12q2 17 2 29.5t-1 26.5v11
q-11 3 -20 9l-3 2zM219 295q-3 -21 -5 -39.5t-7 -41.5q40 -20 73.5 -36t53.5 -24q17 21 31 33.5t27 23.5l2 2l8 7l4 4q-3 11 -6.5 21t-7.5 20q-13 -12 -30 -24.5t-37 -23.5l-42 40h-1l-60 66l-2 -18q0 -2 -0.5 -2.5t-0.5 -1.5v-6zM232 501q0 -53 -2 -89t-6 -68
q31 22 49.5 36.5t29.5 25.5l-30 30l-11 8q0 3 5 14.5t7 12.5q13 -7 30 -15t29 -15l2 5v1q18 35 19 58v7h-9q-15 0 -33.5 -1t-35.5 -3z" />
    <glyph glyph-name="c" unicode="c" horiz-adv-x="548" 
d="M67 223q17 -9 38 -12.5t46 -2.5q1 0 1 2q-1 5 -1.5 11t-1.5 11q23 -30 57 -57q12 -11 28.5 -22t39 -22.5t52 -23.5t69.5 -24q3 0 3 1l53 83q3 3 -1 3q-48 -3 -91.5 6.5t-78.5 21.5q-34 12 -58 26.5t-46 35.5q-5 4 -12 11.5t-15 15.5q0 8 1 18t2 18q4 23 8.5 46t12.5 49
q8 24 18.5 51t24.5 53q8 14 19.5 30.5t24.5 30.5q35 -14 72 -33t87 -53q1 -1 3 1l7 12q11 17 20.5 29.5t23.5 25.5q1 1 0 3q-35 14 -58.5 22.5t-40 12.5t-28.5 5.5t-24 2.5h-8q-5 1 -10 1.5t-8 0.5q8 6 15.5 12t17.5 12q2 1 1 3t-3 1q-14 -8 -26 -14t-23 -13h-6
q-12 1 -22.5 1.5t-21.5 0.5q-41 0 -81 -6q-2 0 -2 -2t2 -2q39 1 90 -15q-27 -18 -42.5 -34.5t-26.5 -30.5q-19 -24 -36 -51t-31 -59q-5 -11 -8.5 -22.5t-7.5 -25.5q-11 15 -24.5 34.5t-27.5 39.5q-1 1 -2.5 0.5t-0.5 -2.5q11 -26 25 -53.5t24 -45.5q-4 -22 -7 -50.5
t-5 -65.5v-2zM54 225q2 34 5 63.5t7 49.5q-11 19 -24 45.5t-24 52.5q-2 4 1 7.5t8.5 5t10.5 1.5t8 -2l7 -11l30 -31l6 15q15 29 33.5 59t35.5 54q5 7 10 13.5t13 13.5l-31 32h-3q-2 0 -3 4.5t-1 9.5q-1 6 0 15q20 5 42 6t43 1h19.5t20.5 -1h6l15 9t22 11l11 5q1 0 2 -2.5
t3 -4.5l26 -26q10 -2 23 -5.5t29.5 -9.5t38.5 -14.5t51 -21.5l-2 -2l41 -41q-20 -20 -31 -34t-22 -31l-5 -8q-6 -5 -10.5 -8t-10.5 3l1 -2q-46 31 -82 50t-68 32q-11 -12 -22 -27t-17 -26h1q-14 -27 -24.5 -54t-18.5 -49h-1q-7 -23 -10.5 -46t-8.5 -48q-3 -12 -3 -25
q31 -25 83 -43q34 -12 76.5 -21.5t87.5 -5.5q7 0 10.5 -4t5.5 -8l37 -37q4 -8 1 -16l-53 -81q-2 -5 -5.5 -6t-6.5 -1q-41 13 -72 25t-54 24t-40 23t-30 22l-29 26l-10 9v-5q-32 0 -57.5 4t-42.5 14l-36 37q-6 1 -9 3zM412 491v-1v1zM203 188l-1 1q1 0 1 -1z" />
    <glyph glyph-name="d" unicode="d" horiz-adv-x="635" 
d="M306 601q30 -23 51 -49t37 -51q28 -40 49.5 -83t39.5 -94q-40 -42 -72.5 -63.5t-69.5 -35.5q-16 -6 -34.5 -12.5t-42 -11t-53.5 -7.5t-69 -3q6 38 10.5 73.5t9.5 67.5q5 42 8 84t3 102v31t-1 35q25 6 56 10.5t78 6.5zM27 535q-2 -1 -1 -2t3 0q19 8 31 13t32 13
q11 -108 15.5 -198.5t4.5 -168.5h-11t-13 1q-1 0 -1 -1q-7 -18 -14.5 -36.5t-15.5 -36.5q-1 -1 0 -2t2 -1q14 -1 26.5 -1h26.5v-14t-1 -10q0 -3 -0.5 -6.5t-0.5 -8.5q0 -2 1.5 -2.5t2.5 1.5l7 19q3 4 6 21q69 0 119 15t89 38q46 28 84 65.5t67 69.5v-11q0 -2 3 -2l74 26v2
q-4 32 -17 64l24 49q1 1 -1 2t-3 -1q-6 -8 -13.5 -16.5t-13.5 -16.5q-4 11 -8.5 19.5t-9.5 19.5q-31 55 -73 98q-35 41 -82 68q-8 4 -16.5 8.5t-16.5 7.5l-1 1l-5 29q0 2 -2 2l-17 -4q-8 -1 -16.5 -2.5t-16.5 -3.5q-13 4 -27 8t-28 7q-2 1 -2.5 -1t1.5 -3l31 -16
q-21 -5 -41 -11t-38 -14v16q0 6 -0.5 11.5t-0.5 10.5q0 2 -1 2q-11 -3 -21 -5t-21 -4q-21 -6 -42 -9v-2l2 -28q0 -14 3 -27q-13 -7 -22 -13t-19 -13zM41 561q9 7 14.5 10.5t11.5 5.5l9 7q0 5 -1 9.5t-1 9.5l-2 44h11h7h-1l34 8q-3 1 6.5 2.5t15.5 3.5l12 2h26v-6l21 -20
l10 4l-1 1q-2 1 -1 5.5t3 9.5q2 6 5 13q13 -2 27 -5.5t29 -9.5q5 1 10.5 2.5t11.5 2.5l9 2l31 1l1 -6l40 -39l1 -8q22 -13 41.5 -30t36.5 -35l18 -20l10 -10l13 -15q13 -15 26.5 -32t25.5 -35l11 13l-2 -8l2 -2q6 -3 13 -6t6 -5v-1l41 -40v-1l-22 -44q11 -29 17 -72l-84 -30
q-4 0 -9 4q-27 -31 -62 -65t-78 -60q-39 -22 -89.5 -37.5t-115.5 -17.5l-5 -14l-7 -18q-3 -7 -10 -7.5t-12 4.5l-36 37h-2h-6l-5 4l-37 36l-2 1q-5 2 -9 7.5t-2 11.5h-1q8 19 18 42t18 43q6 -2 10 -2h9q0 62 -3.5 130.5t-11.5 147.5l-9 -4l-42 40h-1q-2 0 -4 3.5t-5 8.5
q-4 5 -7 13zM384 494q-9 13 -19.5 26.5t-22.5 27.5q-38 -2 -65.5 -6t-50.5 -9q1 -14 0.5 -29.5t-0.5 -27.5q0 -60 -3.5 -103.5t-8.5 -84.5l-10 -81q47 2 77.5 11t54.5 18q32 13 65 34t67 56q-33 91 -84 168z" />
    <glyph glyph-name="e" unicode="e" horiz-adv-x="510" 
d="M51 415q5 -8 6.5 -25t3.5 -45q0 -2 3 -2l35 13q-1 -15 -1.5 -29.5t-0.5 -28.5q0 -33 1.5 -63.5t5.5 -59.5q-22 -2 -42 -5.5t-39 -7.5q-1 0 -1 -1.5t1 -1.5q11 -2 22 -2t22 -1l39 -4l8 -48q0 -2 1 -2q29 5 50.5 8t34.5 3q2 0 2 2l-8 27v2q17 -2 37 -5.5t45.5 -8.5
t58 -12.5t74.5 -17.5q2 0 2 1l31 70v2q0 1 -1 1q-30 5 -75 7t-100 2h-40.5t-40.5 -1q-14 59 -20.5 104.5t-9.5 86.5q51 14 108 21.5t133 13.5q2 0 2 2t-2 2q-45 8 -90.5 12t-93.5 4q-14 0 -28 -0.5t-31 -0.5v1q-1 42 -1 83v81q18 -2 35 -4l34 -4q24 -2 45.5 -4.5t42.5 -8
t43 -14t47 -21.5q0 -1 0.5 -0.5t0.5 2.5q0 19 -3 87q0 2 -2 2q-11 0 -29 0.5t-42 0.5q-36 0 -81 -1.5t-91 -8.5v39q0 5 -2 1l-6 -20l-7 -21q-23 -5 -44 -9.5t-41 -9.5q-2 0 -1.5 -1.5t2.5 -1.5q13 2 33.5 1t46.5 -3q-11 -45 -18 -86t-11 -83q-2 0 -1.5 -0.5t-1.5 -0.5
q-11 -1 -23.5 -2t-24.5 -3zM39 429q17 2 27 3t17 2l9 1q2 28 5.5 54.5t9.5 52.5q-4 -1 -11 -1q-3 0 -7 4l-37 37q-11 2 -13 12.5t9 16.5q19 5 38 9t41 8q1 2 1 4l4 10l4 19q5 11 16.5 9t13.5 -11l22 -23q36 3 71.5 4t64.5 1q24 0 45.5 -1.5t38.5 -3.5v-6l41 -39
q2 -34 3.5 -60t1.5 -36q0 -8 -7.5 -11t-12.5 2l2 -2q-47 25 -88 34t-85 14q-1 0 -2.5 0.5t-3.5 0.5q-16 2 -25.5 2.5t-26.5 2.5v-97h7q50 0 95.5 -4t89.5 -12h-1q0 -1 0.5 -1.5t0.5 -1.5h1l42 -43h-2q2 0 2 -10.5t-2 -13.5q-72 -6 -126 -13t-103 -19q2 -58 16 -126h41
q55 0 100.5 -3t74.5 -8q2 -2 5.5 -4.5t5.5 -7.5l38 -36q6 -7 4 -15l-37 -77q-78 19 -126 29t-80 13l3 -14q0 -4 -3.5 -9t-7.5 -5q-9 0 -35 -3.5t-61 -8.5l-41 40h-4l-3 15q-8 1 -17 1t-17 1l-40 40q-1 0 -1 0.5t-1 0.5t-1 3v2q-1 6 -1 14t1 10q14 4 31.5 6.5t36.5 5.5
q-6 51 -6 111v10l-24 23l-7.5 5t-4.5 8q-1 27 -4 45t-7 27zM65 106v-1h1zM391 529q0 -1 1 -2z" />
    <glyph glyph-name="f" unicode="f" horiz-adv-x="480" 
d="M36 400q-11 -28 9 -73q2 -2 3 -1q11 7 22 11.5t23 9.5q-1 -17 -1 -33v-32q0 -58 4 -109.5t12 -91.5q0 -1 1 -2q29 6 50 8t35 2v1q0 1 0.5 1t0.5 1q-25 90 -34 156t-11 118q37 10 81 16t106 9q2 0 2.5 1t-1.5 2q-29 9 -68 13t-86 4h-36v3q-2 41 -2 80v76h3
q17 -1 33.5 -1.5t33.5 -1.5q26 -1 49.5 -2.5t47 -5.5t47.5 -11.5t51 -20.5q3 -3 3 2q0 20 -9 88q0 2 -2 2q-14 0 -40.5 -1t-61 -3t-75 -6t-80.5 -11q1 12 1 23v23q0 1 -1.5 1.5t-2.5 -0.5l-13 -50q-26 -5 -51 -10t-46 -13q-1 -1 -1 -2.5t2 -1.5q16 3 51 3q10 0 19 -0.5
t20 -0.5q-11 -43 -17 -83t-10 -80q-29 -1 -59 -6zM36 414l15 1q8 2 16 3t18 2q3 25 6 49t7 48h-10.5t-9.5 -1q-6 0 -10 4l-36 36q-9 3 -12.5 12.5t5.5 13.5q25 9 49 14.5t45 10.5l2 6l10 35q4 11 15.5 9t13.5 -12l27 -28q57 8 109.5 10.5t87.5 2.5q10 0 18.5 -0.5t14.5 -0.5
q0 -4 1 -6l39 -39q5 -38 7.5 -62t2.5 -35q0 -8 -6.5 -11.5t-11.5 0.5l1 -1q-26 12 -50 19.5t-47 11.5t-46.5 5.5t-48.5 2.5q-16 2 -27.5 2.5t-31.5 0.5v-93q86 -1 142 -17q6 -3 8 -11l37 -37q6 -5 4 -13.5t-10 -8.5q-57 -2 -99.5 -8t-77.5 -14q3 -50 12.5 -113.5
t32.5 -149.5q0 -4 -3 -9.5t-8 -5.5q-13 0 -36.5 -3t-58.5 -8l-42 41q-1 0 -2 -0.5t-2 -0.5q-8 44 -13 98.5t-5 114.5l-33 34q-7 1 -12 8q-13 29 -13 56q0 9 1 16.5t5 16.5z" />
    <glyph glyph-name="g" unicode="g" horiz-adv-x="578" 
d="M243 351q38 -3 78.5 -10.5t96.5 -26.5q-7 -14 -12 -28t-10 -29q-5 -12 -9 -30t-8 -35l-5 -20q-26 3 -56 3q-8 0 -16.5 -0.5t-16.5 -0.5q-21 0 -41.5 -1.5t-42.5 -6.5q-25 55 -37.5 104t-19.5 84q28 0 51.5 -0.5t47.5 -2.5zM79 371q-8 -2 -13 -4l-10 -4q-6 -2 -12 -4.5
t-16 -4.5q-2 -1 -2 -2.5t2 -1.5q7 0 12 0.5t9 0.5h14.5t16.5 1l5 -46q6 -45 15.5 -90t21.5 -77q-13 -5 -25 -11.5t-26 -16.5q-3 -3 2 -3q27 7 49 13q2 0 3 1t3 1q5 -12 10.5 -23.5t12.5 -19.5q0 -3 2 -1l67 41q1 0 1 3l-4 11q11 1 25.5 0.5t25.5 -1.5q23 -2 47.5 -5t49.5 -9
v-3q-2 -10 -3 -19.5t0 -18.5q0 -2 2 -2l63 3l1 2q-1 5 -1 18l5 -2l7 -3q3 -3 3 1l27 61q3 3 -1 3l-8 2q-10 2 -14 3l-12 2q5 23 10 52.5t12 54.5l3 13q1 2 1 5t2 6l12 -5q8 -2 10 -4q0 -1 1 -0.5t1 1.5q8 18 15.5 35.5t16.5 35.5q1 1 0 2t-2 1l-32 7q6 17 12.5 33t12.5 32
q2 5 -3 2q-17 -14 -29.5 -29.5t-23.5 -30.5q-48 10 -87.5 12.5t-74.5 3.5q-29 0 -66.5 -2t-84.5 -10q-5 28 -5.5 53.5t-0.5 48.5v26v19q22 11 50.5 22t52.5 19q25 8 53 16t61 14.5t72 12.5t87 10q2 0 2 2t-2 2q-34 5 -62.5 8t-56.5 3q-17 0 -37.5 -1.5t-40.5 -3.5
q-36 -3 -78 -9.5t-90 -21.5l5 20q1 5 2.5 11t3.5 12q0 2 -1.5 2t-2.5 -1q-8 -11 -16 -26t-13 -25q-12 -5 -26.5 -10.5t-24.5 -10.5q-8 -21 -11.5 -41t-1.5 -43q0 -4 3 -1l13.5 9t15.5 10q-8 -35 -11 -70t-1 -66zM52 375q2 0 3 1l11 4v16q0 15 0.5 33t2.5 35l-11 11
q-11 0 -11 13q-2 24 1.5 47t13.5 48q8 3 20 8t22 9l9 3q5 10 12.5 22.5t12.5 20.5q3 4 7 7q8 5 16 -1q5 -2 7 -7l19 -20q35 9 66 13t60 7q19 2 40 3t38 1q28 0 57.5 -2.5t61.5 -7.5q0 -1 0.5 -1t0.5 -1h1l43 -43h-2q2 -1 2 -11.5t-2 -13.5q-48 -4 -87 -9.5t-71 -12t-59 -14
t-52 -15.5q-24 -9 -49.5 -19.5t-48.5 -20.5v-38q0 -10 -0.5 -19.5t0.5 -20.5q31 4 56.5 5t48.5 1q35 -1 73 -4t83 -11q11 14 23 28.5t30 29.5q8 4 14 1.5t8 -10.5l38 -38q3 -7 1 -13q-5 -13 -9 -22t-9 -20l20 -20q7 -7 6 -13l1 -1q-8 -18 -16 -35t-15 -35q-2 -4 -8.5 -6
t-10.5 2l1 -2q-1 1 -2 1q-4 0 -6 1h-2l-2 -12q-11 -41 -17 -78l26 -25q6 -8 3 -16h1l-29 -60v1q-4 -7 -12 -7l-2 -16l-84 -1l-40 40h-5q-1 5 -1 11l-39 5q-8 0 -17 0.5t-18 0.5q0 -5 -1 -9.5t-8 -5.5l-65 -39q-5 -5 -7.5 -3.5t-6.5 5.5l-36 35l-33 -10q-1 0 -5 2l-38 38
q-3 0 -6 4t-4.5 8.5t-1 9t2.5 7.5q11 7 20 12.5t19 9.5q-11 31 -18.5 71t-13.5 80h-3q-3 0 -4 0.5l-3 1.5l-38 38q-10 1 -11 12t10 17l22 7zM199 300q5 -23 12 -53t18 -63q14 1 27.5 1.5t28.5 0.5h24q2 0 4 0.5t5 0.5h24t23 -2q0 3 0.5 6t0.5 6q3 12 7.5 29.5t10.5 34.5l4 9
q1 4 1 6.5t1 4.5q-29 7 -55 11t-50 6q-23 1 -40.5 1.5t-45.5 0.5z" />
    <glyph glyph-name="h" unicode="h" 
d="M82 302q0 -64 3 -116t12 -97q0 -1 1 -1l1 -1l77 31q1 0 1 2q-11 57 -17 111t-10 105q8 0 16 0.5t17 0.5t18 -0.5t18 -0.5q32 -2 71 -6t84 -12q-1 -15 -1 -28.5v-28.5q0 -43 2 -83.5t6 -78.5q0 -1 2 -1l82 14q1 0 1 2q-9 46 -16.5 93t-12.5 97q13 -4 24.5 -7t25.5 -8
q3 0 3 1l24 70q0 3 -2 3q-19 2 -38 4.5t-42 4.5q-6 73 -6 142q0 30 1 58.5t4 56.5q0 1 -1.5 1.5t-2.5 -1.5q-21 -58 -32.5 -122.5t-16.5 -132.5h-30q-51 0 -100.5 -3t-99.5 -11q-5 60 -6 109t-1 91v78q0 5 -2 1q-35 -94 -45 -164.5t-12 -128.5q-13 -3 -26.5 -7t-26.5 -9
q-2 -1 -1.5 -2t2.5 -1l16 2l36 2v-29zM95 75q-4 2 -7.5 4.5t-3.5 6.5q-8 38 -11 85.5t-5 102.5q-3 1 -3 4l-37 36q-10 2 -13.5 12t7.5 15q17 6 28 10t19 6q2 60 14 130t44 160q5 9 14.5 6.5t12.5 -11.5l38 -37q3 -3 3 -10q-1 -16 -1 -35v-43q0 -32 0.5 -65t2.5 -72
q38 3 74.5 5t76.5 2h18q5 66 17 128.5t33 121.5q5 10 15.5 7t12.5 -14l36 -36q-1 0 -1 0.5t-1 0.5l2 -1q3 -2 3 -8q-2 -28 -3 -56.5t-1 -58.5v-45.5t2 -44.5l36 -6q2 -2 4.5 -6.5t4.5 -7.5l34 -34q2 -2 4.5 -5.5t2.5 -5.5l-24 -68q-1 -8 -6 -10t-10 -2l-35 11
q5 -46 12.5 -94.5t15.5 -92.5l-105 -14l-42 40h-4q-4 42 -6 86t-2 89v12q-29 5 -53 6.5t-46 3.5q-5 0 -9 0.5t-9 0.5h-18q-5 0 -9 -0.5t-8 -0.5h-6q5 -45 11 -98t17 -115l-89 -36q-1 0 -4.5 1.5t-5.5 3.5z" />
    <glyph glyph-name="i" unicode="i" horiz-adv-x="223" 
d="M148 115q2 0 2 2q-29 133 -38.5 248t-9.5 203v33t1 31h-2h-2q-26 -84 -36.5 -168.5t-10.5 -166.5q0 -51 2.5 -100t7.5 -94q0 -2 2 -2zM54 90h-5q-4 50 -7 101.5t-3 105.5q0 84 10 169.5t39 172.5q4 9 14 6.5t13 -12.5l37 -36q4 -4 4 -9q-1 -15 -1 -30.5v-32.5
q0 -88 9.5 -205t37.5 -257l-107 -13z" />
    <glyph glyph-name="j" unicode="j" horiz-adv-x="365" 
d="M107 118q-3 -3 0 -3l51 -35h2q11 21 24 35q18 -8 44 -19l1 1l-1 1l-32 34q42 49 99 97l1 2q-8 42 -16.5 96.5t-16 111t-13 111t-6.5 97.5q0 2 -1.5 2.5t-2.5 -1.5q-13 -36 -21.5 -121t-8.5 -233v-88l-14 -13q-8 -7 -15.5 -13.5t-15.5 -12.5q-23 26 -43.5 55t-41.5 61
q-2 2 -4 0l-45 -69v-3q41 -35 103 -70zM103 132q-9 7 -18.5 14t-17.5 15l-26 26l-19 15q-3 5 -5 10t3 10q11 16 22.5 33t22.5 32q5 5 13.5 5t13.5 -5l6 -9l35 -35l37 -55l8 5l11 10l9 7q-1 20 -1 44v40q0 149 8.5 236t22.5 125q5 10 15.5 7t12.5 -12l37 -37q3 -3 3 -8
q1 -43 7 -97.5t13.5 -112t16 -113t15.5 -99.5q-28 -24 -51.5 -46.5t-43.5 -46.5l26 -27q9 -10 3 -16.5t-16 -2.5q-3 1 -6.5 2.5t-6.5 3.5q-8 4 -18 8.5t-7 0.5q-4 -6 -8.5 -13t-7.5 -12q-4 -5 -8 -7.5t-11 3.5l1 -1q-13 8 -24 16.5t-24 16.5l-32 33l-13 8q-5 5 -4.5 13.5
t5.5 15.5h1z" />
    <glyph glyph-name="l" unicode="l" horiz-adv-x="433" 
d="M120 79q3 -3 3 1q-2 14 -3 28t-2 29q42 -4 81.5 -5.5t79.5 -1.5q12 0 23.5 0.5t23.5 0.5h1l37 92q2 5 -3 2q-58 -21 -118 -37t-127 -27q-2 20 -2 39v39q0 55 3.5 109.5t9 105.5t13.5 97.5t17 85.5q0 1 -1 2l-91 -12h-2q-6 -66 -6 -133q0 -91 10.5 -176t28.5 -160
q-17 -2 -33.5 -4.5t-34.5 -4.5q-1 0 -1 -1.5t1 -1.5q19 -3 36.5 -4.5t36.5 -3.5q5 -16 9.5 -30.5t9.5 -28.5zM108 76l-5 12q-17 1 -34 5l-41 39l-1 1q-1 0 -1.5 3.5t-0.5 8.5v10v7q14 2 27.5 3.5t26.5 3.5q-17 73 -25.5 155.5t-8.5 169.5q0 35 1.5 71.5t7.5 74.5l120 11
l-1 -5l41 -40q-10 -42 -18.5 -91t-14.5 -101.5t-9.5 -108t-3.5 -109.5v-13q50 11 98 24.5t91 29.5q8 3 14 -0.5t6 -10.5l37 -36q5 -5 2 -15l-40 -98h-31q-5 0 -11 -0.5t-13 -0.5q-37 0 -73.5 2t-76.5 5l2 -22t3 -22q0 -8 -7.5 -11.5t-12.5 1.5l-38 38q-5 0 -10 8v1z" />
    <glyph glyph-name="m" unicode="m" horiz-adv-x="632" 
d="M213 322q-1 -1 -0.5 -1.5t2.5 0.5l24 20l22 22q10 -19 18.5 -38.5t17.5 -39.5l1 -1l76 60v3q-11 17 -23 33t-25 31q34 25 67 46t70 43q5 -29 7.5 -56.5t4.5 -53.5q3 -39 3 -77q0 -46 -5.5 -98.5t-18.5 -115.5q0 -2 2 -2q56 3 101 29l1 2q2 94 -12 190t-52 198
q10 6 23 12.5t24 12.5l12 5q2 2 1 3q-8 10 -19 26.5t-24 41.5q-2 2 -3 1q-10 -5 -20 -12.5t-24 -17.5q-8 17 -15.5 33t-17.5 34q-1 2 -2.5 1t-1.5 -2q6 -22 11.5 -41t10.5 -37q-29 -25 -67 -61.5t-76 -80.5q-36 40 -76 76.5t-82 65.5q8 43 17 85q0 2 -1.5 2t-1.5 -1l-18 -34
t-17 -37q-20 13 -38.5 23.5t-37.5 22.5q-2 1 -3 -1t1 -3q17 -11 35.5 -26.5t36.5 -32.5q-17 -47 -31.5 -101.5t-25 -109.5t-16.5 -107.5t-6 -96.5q0 -7 0.5 -13t0.5 -13q0 -2 1 -2l89 -44q3 0 3 2q-6 43 -7.5 90t-1.5 98q0 67 3.5 135t14.5 135q28 -34 56 -75.5t54 -96.5
l-28 -35zM217 348l22 28q-12 23 -24 44.5t-24 41.5q-5 -57 -8.5 -115t-3.5 -113q0 -101 9 -186q0 -8 -4.5 -12t-12.5 -1l-95 48l-37 37l-8 5q-1 1 -1 3v7v24q0 42 5.5 93.5t15 106t23 108.5t30.5 101l-17 13l-35 33l-10 7q0 2 1.5 6.5t4 9t4.5 8t3 3.5l15 -8q14 -8 25 -13.5
t27 -15.5q5 14 10.5 24t11.5 22l6 11l-1 -1q5 9 15.5 6t12.5 -12l37 -37q4 -4 4 -8q-5 -18 -8.5 -33.5t-6.5 -33.5q27 -22 53.5 -46.5t49.5 -49.5q33 38 67 71t61 56l-8.5 34t-10.5 37q3 3 15 7t13 3l4 -8l35 -34q5 3 11.5 6.5t12.5 5.5l-1 -2q5 2 9.5 -1t9.5 -8
q1 -1 1.5 -2.5t1.5 -3.5l37 -36q13 -26 23 -41.5t16 -23.5q0 -1 1 -1q5 -5 2.5 -9t-6.5 -9l-12 -6q-4 -2 -7.5 -4t-8.5 -4q-6 -4 -12.5 -6.5t-11.5 -5.5q38 -101 51 -197t11 -193q-27 -16 -57 -23.5t-68 -8.5l-41 40h-6q15 72 21 127t6 100q0 38 -3 76l-1 22q0 2 -0.5 3
t-0.5 3q-20 -11 -38 -23.5t-38 -26.5q12 -14 21.5 -28t20.5 -30q5 -5 2.5 -9t-6.5 -6l-74 -60q-5 -5 -9 -3t-8 6l-34 33q-4 1 -6.5 3.5t-5.5 4.5l-4 8l-17 -16q-10 -6 -17 0l-37 37q-7 1 -10.5 6.5t1.5 14.5z" />
    <glyph glyph-name="n" unicode="n" 
d="M87 83l76 32q1 0 1 3q-14 53 -23 108t-14 114q-6 51 -6 108q0 20 1 39.5t3 43.5q33 -35 69 -78.5t72 -91.5t71 -99.5t66 -102.5q-2 -20 -4.5 -38.5t-4.5 -32.5q0 -5 2 -1q5 12 9.5 24.5t8.5 25.5l5 -5l10 -18q2 -2 3 -1l74 43v2q-14 23 -29 45t-31 44q21 97 29 189
t10 172q0 4 -3 1l-96 -37q-1 0 -1 -1q14 -66 20 -138.5t5 -140.5q-62 73 -135.5 143t-146.5 125q0 2 0.5 4t0.5 4q2 17 4.5 36t6.5 41q0 4 -3 1q-7 -19 -13 -37.5t-12 -36.5q-19 14 -38.5 27t-39.5 24q-1 1 -2 -0.5t1 -2.5q17 -15 35.5 -32.5t36.5 -36.5
q-20 -72 -31.5 -143.5t-11.5 -137.5q0 -93 23 -185zM394 73q-14 3 -14 17q3 14 5.5 29.5t4.5 35.5q-48 78 -104.5 157.5t-110.5 144.5q-1 -14 -1 -27.5v-24.5q0 -56 6 -107q5 -57 13.5 -111.5t22.5 -108.5q0 -4 -0.5 -9.5t-8.5 -5.5q-18 -8 -39 -17t-39 -17l-10 3l-39 39
l-7 1q-23 98 -23 198q0 67 10.5 137t30.5 140q-6 6 -16 15.5t-20.5 19t-20 18.5t-16.5 15l10 -2l3 6q1 2 2 4.5t2 4.5q2 6 4 6l18 -11q12 -8 24.5 -15t23.5 -15l21 60q3 10 13 7t13 -13l37 -37q-1 0 -1 0.5t-1 0.5l2 -1q4 -2 4 -9l-11 -68q54 -44 103.5 -90.5t95.5 -98.5
l15 -16q-1 57 -7 124t-19 128l108 41q6 2 12 -1.5t7 -10.5l37 -37q4 -2 4 -7q-2 -80 -9.5 -172t-28.5 -186q16 -21 30 -42.5t27 -43.5q3 -5 1 -9t-5 -7l-73 -44q-5 -2 -9 -0.5t-8 4.5l-4 5q-4 -8 -6.5 -16.5t-4.5 -15.5q-3 -6 -8.5 -5.5t-9.5 5.5z" />
    <glyph glyph-name="o" unicode="o" 
d="M408 372q4 -23 5.5 -47t1.5 -49q0 -30 -3 -63q-35 3 -66 3h-20t-20 -1q-26 -1 -57 -4t-65 -13q-34 76 -43 133t-10 105q-1 19 -0.5 36t1.5 36q54 23 108 43.5t108 35.5q27 -57 40.5 -109.5t19.5 -105.5zM411 668q0 1 -3 1q-7 -3 -25.5 -13t-47.5 -27q-31 -2 -57 -5.5
t-45 -6.5l-17 -3l-9 -2q-17 -2 -30 -4.5t-26 -7.5q4 8 7.5 18.5t8.5 20.5q1 2 -0.5 3t-2.5 -1q-7 -11 -13.5 -22.5t-11.5 -22.5h1l-3 -4v1q-15 -7 -36 -18.5t-52 -30.5q-1 0 -1 -2q4 -33 19 -64q0 -1 1 -1h1l22 12q-10 -34 -14 -64.5t-5 -60.5q-1 -8 -1 -17v-17
q0 -39 5.5 -79t21.5 -85q-11 -5 -19 -9.5t-16 -9.5l-29 -16q-2 -1 -1.5 -2.5t2.5 -1.5l17 5q17 5 29 8.5t23 6.5l14 -36q0 -1 3 -1l93 28q1 0 1.5 1t-0.5 1q-3 5 -6 9t-5 9q5 1 9 1h7h32q30 0 66.5 -3t79.5 -15l-1 -6q-2 -7 -4.5 -14.5t-4.5 -14.5q-2 -4 2 -2q9 8 14.5 15
t11.5 16q13 -3 25 -7.5t27 -9.5q3 0 3 1l31 81l-1 2q-26 5 -53 7q10 34 17 73t10 76q2 12 2.5 26t0.5 26q0 49 -9.5 97.5t-30.5 102.5q18 4 34 7t35 6q1 0 1 1.5t-1 1.5q-43 5 -80 6q-6 16 -16 36zM450 645q28 -2 57 -6q0 -1 0.5 -1.5t0.5 -1.5l43 -43h-1q1 -1 1 -11.5
t-1 -12.5q-14 -1 -28 -3.5t-27 -6.5q19 -50 27.5 -97t8.5 -95q0 -12 -0.5 -27t-2.5 -26q-4 -52 -17 -107q2 -2 2.5 -3.5t1.5 -3.5l34 -33q2 -2 4.5 -5.5t2.5 -5.5l-32 -81q-1 -8 -5.5 -9t-8.5 -1q-14 5 -23 8t-23 7q-5 -8 -11 -14l-13 -13q-13 -7 -17 1l-37 36q-13 0 -13 10
q-21 4 -41.5 5t-37.5 1h-31l4 -4l-2 1q3 -5 1 -10t-6 -7l-96 -30q-2 0 -5 0.5t-6 3.5l-28 27l-6 -2l-22 -7l-17 -4q-7 0 -10 4l-36 36q-10 1 -13 11.5t7 16.5l28 15l7 5h-1q5 3 8 5t11 5q-14 43 -18.5 81.5t-4.5 76.5v16.5t1 18.5q2 21 3.5 44.5t6.5 46.5l-5 7l-3 -2
q-11 21 -16.5 42t-7.5 47q29 18 50 30t38 21l2 2q5 10 12 22t14 22q4 0 14.5 -5t11.5 -7q0 -1 -0.5 -1t-0.5 -1l12 -10h1l13 3l11 1l16 2h-1q18 4 45 8t56 6q26 14 47 25t30 14q5 0 10 -1.5t6 -9.5zM396 371q-5 38 -13 76t-23 77q-43 -14 -89 -32t-87 -35q-1 -16 -1 -31.5
v-31.5q1 -37 7 -80.5t23 -95.5q25 6 48.5 7.5t43.5 1.5q8 1 21 1h20h27.5t27.5 -1q2 14 2 25.5v23.5q0 24 -2 47.5t-5 47.5z" />
    <glyph glyph-name="p" unicode="p" horiz-adv-x="537" 
d="M157 370q1 -1 2 -1v-1zM129 530q49 8 99.5 14t98.5 6h15t15 -1q2 -6 2.5 -11.5t2.5 -10.5q3 -15 6 -33.5t3 -44.5q0 -36 -9 -103q-62 0 -111.5 6t-91.5 17q-4 35 -11.5 75.5t-18.5 85.5zM358 310q-2 -8 -2 -12q0 -2 2 -2l82 -6q1 0 1 2q3 24 3 44l27 9l13 3q2 0 2 1.5
t-2 1.5l-40 -2q0 47 -10 94q-5 20 -12.5 46.5t-21.5 55.5l23 -4q2 0 2 1q-5 25 -15.5 44.5t-24.5 37.5l-1 1q-7 0 -16 -0.5t-17 -2.5q-4 4 -9.5 10.5t-3.5 5.5l-11 15q-1 2 -2.5 1t-0.5 -2q2 -6 4 -11l4 -10l4 -11q-42 -6 -98.5 -21.5t-116.5 -39.5q-6 23 -13 44.5t-15 46.5
q-1 2 -2.5 1.5t-1.5 -2.5q4 -25 6 -49t4 -50l-25 -12.5t-22 -13.5q-5 -2 -10 -5.5t-12 -6.5q-2 -1 -1 -3t3 -1q17 5 31 8.5t38 8.5q3 -47 3 -95v-22.5t-1 -22.5q-8 2 -15.5 4.5t-15.5 6.5l-11 5q-3 0 -3 -1q-22 -54 -25 -83q0 -2 2 -2q1 -1 2 -1h2q16 -2 31 -3.5t30 -3.5
q-4 -50 -11 -100t-18 -102q0 -1 2 -1l88 1q2 0 2 1q9 55 9 104q0 43 -6 93q52 -1 100.5 4t93.5 12q-2 -6 -2 -9zM143 614l11 -30q44 16 86 27t77 19l-6 16q-3 11 7 17.5t18 -2.5l14 -19l7 -6q8 0 17 0.5t17 -0.5l11 -13l31 -31q17 -22 28.5 -46.5t17.5 -57.5l-19 1
q10 -24 16 -47t11 -40q2 -14 4 -26.5t4 -25.5l31 -31q1 0 1.5 -3.5t0.5 -8v-8.5t-1 -5l-11 -2h-1l-18 -5q0 -11 -0.5 -22.5t-5.5 -28.5l-103 10l-16 15q-35 -5 -73 -7.5t-78 -2.5q2 -22 3 -43t1 -41q0 -26 -3 -53.5t-9 -61.5h-112l-40 40h-6q10 47 17 88.5t11 79.5
q-4 0 -5 1q-4 1 -14 11l-29 30h-1q-3 0 -6.5 3t-8.5 8q2 17 8 40t17 50q2 8 8 9t11 1l14 -5q3 -2 6.5 -3t8.5 -3v28v29l-15 -3l-42 40h-1v5l-8 14q-2 8 -1 9q9 4 13 6.5t6 4.5q12 7 21.5 13t20.5 11q-2 23 -4.5 44t-4.5 44q0 11 10.5 15.5t15.5 -5.5v-4l38 -36zM185 479
q7 -29 11.5 -55.5t9.5 -52.5q65 -11 145 -12q5 29 6.5 51t1.5 39q0 25 -5 48q-41 -1 -84 -6t-85 -12z" />
    <glyph glyph-name="q" unicode="q" horiz-adv-x="561" 
d="M338 580l-2 -1q-1 1 -1 2zM398 364q4 -23 5 -48t1 -50q0 -15 -0.5 -29.5t-1.5 -31.5q-21 2 -40 2h-39h-26l-7 15q-5 19 -12 38q-1 2 -2.5 1.5t-1.5 -2.5q-3 -14 -6 -27.5t-6 -25.5q-41 -3 -88 -17q-35 75 -44 133.5t-10 105.5q-1 20 -0.5 36.5t1.5 33.5q54 25 107.5 44.5
t107.5 36.5q26 -54 40 -110t22 -105zM125 584q-15 -8 -35 -19t-51 -29q-1 0 -1 -2q2 -17 6.5 -33t12.5 -31q0 -1 3 -1l20 11q-10 -33 -13.5 -63t-5.5 -61v-29q0 -40 4.5 -81t20.5 -89q-8 -4 -13.5 -7t-10.5 -8q-12 -8 -31 -18q-2 -1 -1 -2.5t3 -0.5l28 9l16 4t18 4l3 -11
l9 -24q0 -1 3 -1l93 28q3 0 1 2q-6 7 -9 15l-1 3h8t9 1h40l-3.5 -14t-3.5 -12q-2 -8 -3 -13.5t-2 -10.5q0 -1 1 -2q20 -4 40 -8.5t41 -12.5q3 -2 3 1q-2 13 -4.5 24t-4.5 22q-2 5 -3.5 10.5t-3.5 11.5q39 -3 79 -15l-10 -35q0 -2 3 -2q8 8 13.5 15t10.5 18q14 -5 26.5 -8.5
t27.5 -8.5q2 0 2 1l32 79q0 3 -2 3l-53 8q11 33 17.5 71.5t9.5 76.5q2 12 2 25v24q0 51 -8.5 99.5t-30.5 102.5q18 5 34.5 7.5t35.5 6.5q1 0 1 1.5t-1 1.5q-19 2 -41 4t-39 2l-2 3q-3 8 -6 16.5t-8 16.5h-3q-8 -2 -26 -12t-47 -26q-38 -4 -68.5 -8.5t-50.5 -7.5
q-21 -4 -35 -6.5t-31 -9.5l8 20t8 21q1 2 0 2.5t-2 -0.5l-3.5 -3.5t-1.5 -3.5zM137 629q0 4 3 7q2 0 4 -1q3 0 11 -3t10 -5q2 -1 4 -1l10 -12l24 4q20 5 51 9t68 7l6 5q24 14 41.5 22t26.5 12q4 0 9.5 -2t7.5 -7v-1l28 -28q14 -1 28.5 -2t27.5 -2v-3l42 -42q0 -1 0.5 -4.5
t0.5 -8t-0.5 -8l-0.5 -3.5l-9 -2q-14 -2 -22.5 -3t-23.5 -6q20 -52 27.5 -99t7.5 -95v-25t-2 -26q-2 -26 -6.5 -53t-10.5 -53q2 -2 4 -8l34 -33q2 -3 4.5 -6t2.5 -5l-31 -81q-1 -8 -6 -9t-9 -1q-15 5 -24 9t-22 8q-6 -8 -11.5 -14.5t-14.5 -15.5q-8 -6 -16 0l-37 37
q-5 2 -6 4q2 -11 4.5 -22t4.5 -25q0 -8 -5 -12.5t-12 0.5l-1 1q-14 5 -38 10.5t-51 12.5l-25 25l-90 -26q-2 0 -6 0.5t-7 3.5l-27 25l-8 -2l-29 -8l-43 43h1l-2 2q-2 5 -5 11t-3 8v4q9 4 16.5 8.5l12.5 7.5q4 2 8 5t6 6l1 1q-15 46 -19 84.5t-4 78.5v21q0 2 0.5 4t0.5 4
t0.5 3.5t0.5 3.5q2 23 3.5 44t7.5 46l-7 4q-2 2 -5 4.5t-5 4.5q-7 15 -11.5 34t-5.5 43q14 8 26 16t23 13q32 19 41 23zM385 362q-6 35 -14.5 74t-22.5 78q-43 -14 -88 -31t-86 -34q-2 -15 -2 -31t1 -33q1 -38 6 -80t22 -94q13 3 25 4t25 3l11 45q2 9 12 12.5t15 -6.5l1 -7
l37 -36q-1 0 -1 1l3 -3v-4h29.5t31.5 -2q2 14 2 25v23q0 24 -2 48.5t-5 47.5zM499 589h1l30 -29z" />
    <glyph glyph-name="r" unicode="r" horiz-adv-x="578" 
d="M366 538h-2v2zM369 516q4 -15 6.5 -33.5t2.5 -46.5q0 -19 -1.5 -43.5t-6.5 -57.5q-24 0 -48 1.5t-44 3.5q-8 8 -15 16t-15 19q-5 6 -10.5 13t-11.5 14q-1 1 -2 0.5t0 -2.5l5 -16q3 -10 7.5 -20.5t7.5 -20.5q-20 2 -39 6.5t-38 9.5q-4 35 -11 75t-18 85q48 9 99 14.5
t99 5.5h14.5t13.5 -1zM23 498q-2 -1 -1.5 -2.5t2.5 -0.5q18 5 39 9.5t47 9.5q1 -26 1.5 -51t0.5 -51v-38l-17 5q-6 3 -13.5 5.5l-13.5 4.5q-3 0 -3 -1q-9 -26 -15.5 -46.5t-9.5 -35.5q0 -2 2 -2q17 -2 33.5 -4t33.5 -4q-4 -50 -11.5 -99.5t-18.5 -102.5l2 -1l88 1q1 0 2 1
q9 55 9 104q0 43 -6 93q24 0 46.5 1t45.5 3q29 -60 64.5 -112t80.5 -95l1 -1q55 14 90 50q2 0 0 2q-23 8 -72 48.5t-117 112.5l31 4l23 4l-4 -18q0 -1 -0.5 -1.5t-0.5 -2.5t2 -2l84 -6q2 0 2 2q2 12 2 23v22l29 8h-1l12 3q2 1 2 2.5t-2 1.5l-40 -3q0 46 -10 93q-5 22 -12 48
t-23 55q7 -1 13 -2t12 -1h1q-6 25 -16 44.5t-24 37.5l-2 1q-6 0 -15 -0.5t-18 -2.5q-1 3 -3.5 7t-4.5 6l-15 18q0 1 -2 0.5t-1 -2.5l11 -32q-42 -6 -98 -21t-116 -38q-6 23 -13 45t-15 45q-1 2 -2.5 1.5t-1.5 -2.5q4 -26 6.5 -50t4.5 -49q-44 -18 -85 -41zM29 483
q-1 0 -1.5 2.5t-2.5 4.5l-4.5 9t-2.5 7v1v1v-1v2l-1 1q21 12 40 21t38 17q-2 22 -4.5 43.5t-5.5 45.5q0 5 3 9t7.5 6t9 0.5t7.5 -6.5q0 -3 1 -3l37 -37l2 -3l10 -29q47 17 88 26.5t76 17.5q-2 5 -3.5 10t-3.5 9q3 2 13 6.5t13 4.5l7 -5q5 -6 7 -12l5 -5h34l13 -16l29 -29
q17 -21 28.5 -46t19.5 -58q-6 2 -9 0.5t-10 -0.5q11 -24 16.5 -45.5t9.5 -41.5l7 -42q3 -3 3 -7l37 -37q4 -3 3.5 -10t-7.5 -10l-11 -3l-21 -6q0 -11 -1 -21.5t-6 -28.5l-101 9q42 -36 75 -60t50 -32l-2 -3l41 -41q-52 -50 -111 -62l-41 40q-1 0 -1.5 -0.5t-1.5 -0.5
q-36 35 -68 78t-58 88q-13 -1 -26.5 -1h-25.5q2 -22 2.5 -43t0.5 -41q0 -26 -2.5 -53.5t-8.5 -61.5h-111l-40 40h-7q10 47 17 89t11 79q-5 2 -10 3.5t-10 3.5l-39 39q-3 0 -7 2q3 18 10 41.5t18 51.5q0 9 5.5 10.5t10.5 1.5l8 -3q7 -2 13 -3.5t9 -3.5h1v20v20t-1 18l-28 -7
q-1 0 -1 2l-40 38h-1zM366 436q0 27 -5 50q-40 -2 -82.5 -6.5t-84.5 -11.5q7 -29 11 -55.5t9 -52.5q2 0 4.5 -0.5t5.5 -0.5q-2 4 -2.5 7.5t-2.5 7.5l-2 6v-1l-7 19q4 2 13.5 6.5t13.5 4.5q2 -2 3.5 -4.5t1.5 -1.5q3 -6 7 -10l30 -30l6 -9l2 -1l2 -2q16 -2 35 -2.5t36 -0.5
q5 30 5.5 50t0.5 38z" />
    <glyph glyph-name="s" unicode="s" horiz-adv-x="578" 
d="M383 137q0 -4 3 -1l90 42q1 0 1 1t-3.5 15t-14.5 37q8 6 14.5 13t15.5 15l15 15q2 2 1 3t-3 0q-13 -8 -25 -15.5t-26 -13.5q-14 26 -38.5 61t-59.5 73q-15 16 -32.5 32t-41.5 32.5t-55.5 32.5t-74.5 33q43 15 91.5 24.5t103.5 9.5q22 0 44.5 -1.5t47.5 -5.5q2 0 2 2
l-19 92l-1 1q-72 -2 -153 -30.5t-154 -77.5l-25 7l-37 12q-1 1 -2 -1t1 -3l47 -27q-15 -11 -30 -24.5t-33 -30.5q-2 -1 -1 -2.5t2 -0.5q21 13 42 23.5t44 20.5q36 -20 57.5 -37t41.5 -37q13 -13 28 -30t31.5 -42.5t36 -60.5t41.5 -84q-78 -23 -163 -23q-25 0 -51 2t-53 7
q-2 0 -2 -1l-37 -64q0 -2 2 -2q46 -12 81 -17t64 -5q18 0 35.5 2t32.5 5q23 5 50 14.5t60 32.5zM403 346q18 -21 34 -40.5t28 -36.5q10 5 17 10t16 11q8 3 14.5 -0.5t6.5 -11.5l37 -37q8 -6 -3 -16l-15 -15l-13 -14h1l-12 -11q8 -20 11.5 -37t2.5 -20l-94 -45h-1
q-8 -2 -14 4l-11 12q-27 -16 -53.5 -25.5t-46.5 -13.5q-15 -3 -33 -5t-36 -2q-59 0 -147 22l-3 2q-1 0 -1 1l-37 36l-1 1q-5 2 -10 10t-1 12l42 72q32 -6 59.5 -8.5t51.5 -2.5q36 0 74.5 5t71.5 13q-19 41 -35.5 71t-31 52.5t-27 38.5t-24.5 28q-13 10 -27 19.5t-32 20.5
q-23 -9 -43 -20t-41 -24h-1l-40 41h-1q-1 -1 -3 1l-2 9q-2 3 -2.5 6t-1.5 5l-1 1q-6 -2 -8 -2l16 15q9 8 17 15t17 15l-17 17l-10 5q0 7 5 17q2 5 5 11l21 -6q9 -5 19 -6l19 -7q74 50 158 77.5t164 29.5l1 -7l39 -39l21 -115q-32 4 -57.5 6t-47.5 2q-35 0 -68 -4.5
t-64 -11.5q38 -23 62.5 -44t44.5 -43q14 -15 25 -28z" />
    <glyph glyph-name="t" unicode="t" horiz-adv-x="529" 
d="M456 584q0 1 -2 1q-68 16 -147 16h-30t-31 -2q-2 13 -6 24.5t-8 22.5q-1 2 -2.5 1.5t-1.5 -2.5v-22t-1 -25q-46 -5 -97.5 -14t-109.5 -24q-1 -1 -0.5 -2.5t1.5 -1.5q29 -2 84.5 -4.5t120.5 -9.5q-1 -51 -4.5 -109.5t-10 -119.5t-17.5 -120.5t-26 -113.5q0 -5 2 -3l113 38
v1q1 17 1.5 38.5t0.5 47.5q0 35 -1 76.5t-4 85t-8 88.5t-13 87q52 -7 102.5 -17t96.5 -24q3 0 3 2zM468 589l40 -39l6 -94q0 -5 -4.5 -8.5t-8.5 -3.5q-44 14 -91.5 23t-95.5 16q14 -83 19 -169.5t5 -155.5q0 -26 -0.5 -51.5t-2.5 -42.5l-118 -40q-7 -4 -11 2l-38 37
q-6 1 -9.5 6.5t-3.5 12.5q14 48 24 100t17 105t11 105.5t6 100.5q-48 5 -87 6.5t-62 3.5h-1q-5 0 -6 3l-37 37q-9 1 -11.5 12t8.5 17q54 15 102.5 24t96.5 14v35q0 11 10.5 15.5t16.5 -6.5l1 -4l37 -36h26q82 0 161 -19v-6z" />
    <glyph glyph-name="u" unicode="u" horiz-adv-x="572" 
d="M396 620q-8 -46 -12 -91.5t-4 -90.5q0 -125 32 -244q-36 -7 -76 -10t-84 -3q-50 0 -104 6q-14 51 -19 89.5t-5 70.5q0 12 0.5 23.5t1.5 22.5q2 57 11 113.5t29 125.5q0 3 -2 3q-28 -2 -55.5 -6t-54.5 -11q-2 0 -2 -2q-5 -51 -7 -92.5t-2 -74.5q0 -60 6 -102.5t17 -75.5
q6 -20 14 -39.5t16 -37.5q-11 3 -23 6t-24 8q-3 0 -3 -1q-3 -8 -5 -16.5t-2 -17.5q0 -21 11 -45l2 -1q53 -11 97 -12q8 -11 16.5 -21t19.5 -21q0 -1 1.5 -0.5t0.5 2.5l-7 20l-8 19q22 0 42 1t42 4q36 4 75 13t89 35q6 -17 11 -31.5t12 -31.5q1 -2 2 -1.5t1 2.5q-2 17 -3 35
t-1 38q14 8 28 17t30 19q2 1 1 2.5t-3 1.5q-11 -5 -26.5 -10t-30.5 -7q0 100 17 211t47 211q0 3 -1 3q-18 3 -38 3q-15 0 -31.5 -1.5t-36.5 -5.5zM395 636q20 2 37.5 4t33.5 2q11 0 21.5 -1t18.5 -2q4 -2 7 -7t4 -8l36 -35q5 -5 5 -8q-26 -84 -41 -174t-21 -178l2 -4t3 -5
l37 -37q2 -2 5.5 -10.5t3.5 -10.5q-15 -11 -26.5 -18t-25.5 -15q0 -17 1 -33.5t3 -32.5q0 -9 -7.5 -13.5t-12.5 0.5l-37 38q-7 0 -10 7l-1 3q-38 -16 -69.5 -22t-62.5 -10q-21 -2 -34 -3.5t-34 -1.5l1 -6l8 -18q0 -2 -9 -5.5t-13 -4.5l-36 35q-23 2 -46.5 4.5t-49.5 9.5
l-39 39q-4 0 -6 1q-15 33 -15 57q0 10 2 19.5t5 17.5q1 7 7 9t10 2l10 -3l12 -4q-11 27 -20 53q-9 33 -15.5 76t-6.5 106q0 36 2.5 79.5t10.5 99.5q57 16 120 19q4 0 8 -4.5t6 -8.5l36 -35q6 -8 6 -13q-20 -69 -28.5 -125t-11.5 -111q-1 -11 -1.5 -22.5t-0.5 -23.5
q0 -23 2.5 -49.5t8.5 -58.5q33 -3 64 -3q38 0 74 2.5t68 7.5q-14 57 -20 114.5t-6 120.5q0 47 4 93.5t12 93.5z" />
    <glyph glyph-name="v" unicode="v" horiz-adv-x="561" 
d="M112 631h-1l-6 -5q-24 -16 -43 -31.5t-31 -33.5v-2q61 -78 92.5 -136t53.5 -101l4 -9l15.5 -31t15.5 -32q-14 -29 -27 -62t-23 -64q0 -3 1 -3q18 -9 37.5 -17.5t39.5 -15.5l1 2q3 14 5.5 27.5t7.5 27.5l24 -66q0 -1 1.5 -1t1.5 2q-3 25 -7.5 49.5t-9.5 49.5
q15 51 35 103.5t47 108.5t63 117.5t85 130.5q1 2 0 3t-3 -1q-34 -33 -67 -69.5t-65.5 -78t-63.5 -89.5t-61 -105q-23 84 -51.5 166t-69.5 165zM107 644q4 0 10.5 -1t8.5 -9l38 -39q0 -2 0.5 -3t0.5 -2q27 -57 49.5 -113t41.5 -112q52 88 110.5 157.5t116.5 126.5
q8 8 15.5 4.5t8.5 -10.5l37 -36q6 -6 1 -17q-49 -69 -85 -129.5t-63 -115.5t-46.5 -106.5t-34.5 -101.5q12 -51 18 -98q0 -8 -7.5 -12.5t-11.5 0.5l-20 20v-2q-2 -3 -7 -6t-7 -3q-47 16 -80 33l-4 2l-37 37q-2 0 -2 1q-8 2 -9 7.5t-1 9.5q11 30 23.5 63t25.5 62l-26 53
l-7 14q-21 43 -54 103t-95 140q17 25 37.5 42t44.5 34z" />
    <glyph glyph-name="w" unicode="w" horiz-adv-x="755" 
d="M399 535q7 29 12.5 56.5t9.5 53.5q0 2 -1.5 2.5t-2.5 -1.5q-13 -39 -32 -85q-13 20 -26 38t-27 38q0 2 -1.5 1t-0.5 -1q11 -26 21.5 -52t20.5 -52q-25 -57 -60 -120t-75 -123q-7 39 -16.5 74t-18.5 64q-18 55 -38.5 106.5t-46.5 93.5q-2 2 -2 1l-80 -46q-2 -2 -1 -3
q53 -76 95 -162t76 -175q-13 -18 -26.5 -35.5t-27.5 -35.5q0 -3 1 -3l87 -26q9 -23 15 -46q1 -2 2 -1.5t1 2.5q-1 14 -1 27.5t-2 25.5q12 22 28.5 58.5t35 82t36.5 97t33 102.5q21 -61 39.5 -128.5t32.5 -134.5q-12 -25 -25.5 -51t-28.5 -53q-1 -1 0 -1.5t3 0.5q14 15 30 31
t29 33q5 -20 8 -38t7 -39q0 -2 1 -2.5t1 0.5q26 23 44.5 43t29.5 40v1q-8 20 -15 39.5t-15 39.5q15 23 32 52.5t36 70.5t41 95.5t48 126.5q1 2 -2 2l-104 -15l-1 -1q-10 -65 -27 -131.5t-47 -141.5q-24 54 -50.5 105.5t-54.5 100.5zM384 601l3 -4q5 16 10 29.5t10 27.5
q3 8 13 5.5t13 -11.5l37 -37q4 -3 4 -9q-4 -28 -9 -55.5t-13 -54.5q31 -53 60 -108q20 59 32.5 115.5t22.5 116.5l115 15q16 0 16 -11l40 -38q4 -3 -1 -14h-1q-25 -71 -46.5 -124.5t-40.5 -94t-35.5 -70.5t-30.5 -53q8 -19 15 -38.5t14 -40.5q-24 -43 -78 -89l-1 1
q-9 -7 -15 1l-37 37q-7 -8 -13.5 -14t-13.5 -13q-10 -5 -15 1l-38 36q-6 2 -8.5 9t1.5 16q4 6 6 9.5t4 7.5q11 21 21.5 40.5t20.5 39.5q-14 68 -33 134q-14 -41 -28.5 -79.5t-28.5 -72t-26.5 -60.5t-21.5 -45q2 -12 2 -25t1 -26l-36 35v-1l36 -34q0 -7 -8.5 -10t-13.5 3
l-36 37q-8 1 -12 8l-3 10l-45 13l-41 40l-1 1q-6 1 -9.5 8t0.5 13q14 17 25.5 32.5t24.5 33.5q-16 39 -35.5 82.5t-41.5 87t-44.5 84.5t-44.5 74q-7 7 -4 12.5t9 11.5l91 49l7 -13l33 -33q29 -48 51.5 -101t40.5 -109q2 -9 4.5 -16.5t4.5 -16.5q28 46 53 92.5t42 85.5
q-8 23 -18.5 47t-19.5 45q-3 3 -3 5t3.5 5t8.5 5q5 3 13 6l9 -14z" />
    <glyph glyph-name="x" unicode="x" horiz-adv-x="542" 
d="M141 119q20 71 42.5 130.5t46.5 110.5q84 -94 143.5 -158t97.5 -96q0 -1 1 -0.5t0 2.5q-51 77 -104.5 156t-107.5 155q35 60 73 113.5t82 101.5q1 1 0.5 1.5t-1.5 -0.5q-53 -38 -98.5 -81.5t-84.5 -92.5l-126 178l-2 1q-37 -31 -57 -68v-2l56 -65l87 -100
q-48 -72 -86.5 -149.5t-62.5 -150.5q0 -2 2 -2q74 5 98 15zM158 600l79 -112q38 46 79.5 85t91.5 75q9 5 15 0.5t6 -12.5l37 -36q7 -5 1 -16q-85 -92 -152 -207q53 -76 105.5 -152.5t103.5 -153.5q5 -10 -1 -15.5t-16 -0.5q-18 15 -42 39l-2 2q-32 26 -79.5 75.5
t-110.5 121.5q-23 -46 -42.5 -101t-36.5 -120l-7 -7q-26 -11 -102 -15q-4 0 -6 1l-4 2l-38 37q-8 2 -9 8t-1 9q26 74 62 150t84 148l-40 44l-41 48l-62 74q12 23 29 43t35 35q8 6 13 3.5t10 -8.5l8 -11l30 -31l-1 1z" />
    <glyph glyph-name="y" unicode="y" horiz-adv-x="518" 
d="M102 622q-2 2 -3 1q-26 -21 -42.5 -35.5t-24.5 -24.5v-2q35 -63 82.5 -119t103.5 -111q-23 -54 -36 -114t-11 -121l2 -1q55 -3 101 20q1 0 1 1q-1 20 -1 37v34q0 24 0.5 46.5t2.5 43.5l28 -26l27 -22q2 -1 2.5 -0.5t-0.5 1.5q-13 17 -26 36t-27 37q8 46 22.5 87
t35.5 79.5t47.5 76.5t58.5 79q1 3 -2 3q-60 -48 -115 -113t-93 -145q-38 60 -71 122.5t-62 129.5zM113 628l3 -7l38 -37q20 -46 41 -90t45 -86q39 66 92 127.5t108 104.5q8 4 13.5 0t6.5 -11l36 -36q7 -5 2 -14q-32 -40 -58.5 -77.5t-47 -75t-35 -78t-22.5 -86.5l15 -21
l35 -48q6 -10 -0.5 -15.5t-16.5 -0.5l-41 36q-2 -17 -1.5 -34.5t0.5 -34.5v-37.5t1 -41.5q-28 -14 -58 -19.5t-65 -1.5l-40 39q-1 0 -2 0.5t-3 0.5q-2 67 10 128t34 116q-57 56 -104 112.5t-84 123.5q13 13 32.5 30.5t43.5 37.5q6 6 10.5 4.5t8.5 -6.5z" />
    <glyph glyph-name="z" unicode="z" horiz-adv-x="564" 
d="M491 581q-14 4 -30.5 7.5t-33.5 7.5q9 13 17 24t19 23q0 5 -3 2l-23 -22l-24 -25q-85 17 -170 22t-155 6q-1 0 -1 -1q-8 -17 -12 -33.5t-4 -36.5q0 -5 0.5 -11.5t1.5 -13.5q0 -1 3 -1q75 23 154 35.5t164 14.5q-38 -41 -79.5 -88t-82.5 -100.5t-80 -114t-73 -126.5
q-14 -1 -27 -1.5t-27 -2.5q-2 0 -2 -1.5t2 -1.5l46 -7l-18 -42q-1 -1 0 -2h83q2 0 2 1q1 2 2.5 8t3.5 10l7 17q35 -4 73 -5.5t76 -1.5q50 0 106 3l2 1l67 91q1 2 0 3t-3 0q-36 -13 -115 -29.5t-190 -30.5q24 51 53 105t61 107.5t66 106t67 101.5h37.5t38.5 -2zM506 584
l41 -40l-4 -21q-19 2 -40.5 2.5t-39.5 0.5q-57 -81 -111 -168t-98 -174q75 11 129.5 23.5t83.5 22.5q8 3 14 -0.5t8 -9.5l35 -36q-1 0 -1 1l1 -1q8 -8 2 -16l-71 -97q-27 -2 -56.5 -2.5t-55.5 -0.5q-38 0 -72 1t-71 4l-3 -9h-1v-3l-11 -22h-89q-3 0 -6 3l-37 37q-6 1 -10 7
t-2 12v1l4 12l-18 19h-3q-1 0 -1 4.5v10t0.5 10t1.5 4.5h2q1 0 1.5 0.5t2.5 0.5q11 2 19.5 2t19.5 1q54 104 119.5 192t130.5 162q-53 -5 -102.5 -16t-97.5 -25q-4 0 -11 5l-36 36q-10 3 -12 12q-1 7 -1.5 14t-0.5 12q0 21 4.5 41t17.5 44q72 -1 158.5 -7t170.5 -21l18 19
l23 23q9 9 17 5t8 -12l37 -36q5 -6 2 -13q-2 -2 -4.5 -5t-4.5 -5v-4z" />
    <glyph glyph-name="k" unicode="k" horiz-adv-x="495" 
d="M218 357q-18 -25 -39 -49.5t-47 -52.5q6 -28 13 -60t15 -69l-1 -2q-2 -2 -25.5 -8t-65.5 -16q-2 0 -2 2l-2 46v42l-29 -22q-5 -2 -2 3q6 7 10 13t9 13l11 12q-1 22 -1.5 47t-0.5 47q0 75 7 159t30 188q0 2 1.5 2t1.5 -2v-32q0 -25 0.5 -46t1 -40.5t1.5 -39t3 -40.5
q2 -29 5.5 -66t12.5 -91q18 27 35.5 54.5t31.5 53.5q-8 11 -16 21l-16 20l-3 4q-1 2 0 2.5t2 -0.5q12 -7 22 -14.5t20 -15.5q27 49 48 95t35 93q0 1 2 1q24 5 47.5 10.5t47.5 12.5q4 0 3 -3q-39 -84 -74.5 -140.5t-69.5 -101.5q60 -56 108.5 -122t82.5 -135v-2v-1l-44 -20
t-43 -19h-2q-1 0 -1 1q-23 86 -55 154t-66 118q-1 -1 -1 -2t-1 -2zM329 86q0 -5 11 -9l36 -36q8 -6 12 -6q23 9 45 19.5t45 20.5l-1 1q4 2 6 7.5t-1 10.5l1 -3q-32 63 -75.5 124t-96.5 114q-3 5 -6.5 8.5t-7.5 8.5q31 43 66.5 99.5t72.5 136.5q5 9 -1 13l-38 38
q0 5 -5.5 8.5t-13.5 3.5q-24 -6 -50.5 -12.5t-51.5 -12.5q-16 -45 -34.5 -89.5t-44.5 -90.5l-27 18l-8 6l-3 1.5t-3 0.5q-2 25 -2 50.5v59.5v31h-1l-39 40v3q0 1 -8 1.5t-15 -0.5h-3l-1 1v-1q-1 0 -1 -0.5t-1 -0.5h-1v1q-22 -103 -29.5 -187t-7.5 -161q0 -20 0.5 -45
t1.5 -45l-10 -13h-1l-14 -21q-1 -1 -1 -2q-1 0 -0.5 0.5t-1.5 -1.5q-5 -8 -1.5 -14.5t10.5 -7.5l22 -22l2 -46h5l40 -39q100 18 115 33q-9 36 -16 68.5t-12 60.5q17 19 34 37t31 36q22 -42 42.5 -92t35.5 -104zM160 409q-1 4 -1 8v9l18 -24q-4 -7 -7.5 -13t-7.5 -12l-2 28v4
z" />
    <glyph glyph-name="B" unicode="B" horiz-adv-x="583" 
d="M232 561q17 2 35 3t35 1q14 0 26 -0.5t25 -2.5q9 -18 12 -32.5t2 -25.5q-2 -30 -19 -61q-2 -5 -4.5 -9t-7.5 -10q-14 8 -31 17t-35 17q-1 1 -2 -1t1 -3q17 -11 32 -22.5t25 -20.5q-12 -12 -34.5 -31.5t-60.5 -45.5q-2 -2 0 -3l53 -58q1 -2 2 -1q26 17 47.5 36t38.5 38
q12 -24 24 -55.5t24 -69.5l-6 -7l-8 -7q-15 -13 -31 -27.5t-36 -40.5q-29 11 -79 34.5t-110 55.5q5 32 9 58.5t7 52.5q0 2 0.5 4.5t0.5 4.5q3 21 5 42t3.5 45t2.5 52.5t1 64.5zM99 537q7 -81 11 -152.5t6 -137.5q-11 6 -20.5 12t-20.5 12q-1 1 -3 -1q-16 -29 -29 -61
q0 -2 1 -2q16 -8 34 -16.5t37 -16.5v-39q1 -14 1 -27t-2 -30q0 -1 1.5 -1.5t2.5 0.5q5 21 8.5 36.5t6.5 30.5l4 23q39 -13 86 -23.5t101 -23.5l-25 -34q-3 -3 1 -3l60 -9h2q15 33 31 60.5t35 55.5l3 -9q2 -9 5 -12q1 -1 2 0l34 32v-1l37 19q1 0 1 3q-4 11 -9.5 23t-11.5 22
l11 15q4 5 7.5 9t6.5 9q2 2 -1 2l-11 -10l-18 -15q-16 26 -36 50t-46 51q23 27 28 52q3 12 1 27.5t-11 40.5q-5 11 -11.5 25t-20.5 32q20 -6 37 -14q3 -2 3 3q-25 57 -91 100q-8 -2 -17 -3.5t-17 -3.5q-2 2 -2.5 3t-1.5 2l-27 19q-2 1 -2.5 0t0.5 -2l10 -15q1 -2 3 -5.5
t4 -5.5q-29 -6 -55.5 -14.5t-52.5 -18.5q-1 7 -1 14.5v15.5q0 2 -3 2l-80 -27v-2l1 -20q2 -10 2 -15q-25 -13 -39 -26q-13 -10 -32 -21q-1 -1 -1 -2.5t2 -1.5l24.5 7t18.5 6h-1zM42 193q-1 0 -3 2q-6 2 -7 7.5t-1 8.5q7 18 14.5 34t16.5 33q5 4 9.5 6.5t9.5 -2.5v1l7 -5
l8 -6t3 -2l4 -1q-2 50 -4.5 96.5t-6.5 103.5l-18 -5q-5 0 -10 5l-37 36q-8 2 -11.5 12t6.5 14h-1q12 8 18.5 13t10.5 7q5 5 15.5 12t20.5 12q0 1 -0.5 0.5t-0.5 0.5q-2 2 -2 6l-1 31l92 31q3 0 9.5 -4t7.5 -9l9 -9q17 5 33.5 10t32.5 10q-4 6 -8 10q-5 10 3 18t17 3l26 -20
l3 -3l33 8q46 -32 75 -69l17 -17q33 -33 47 -67q4 -8 -1.5 -14t-14.5 -2l-3 2h-1q0 1 -2 1q4 -10 7.5 -16.5t6.5 -13.5v-3q11 -27 13 -44t-1 -30q-5 -22 -24 -49l3 -4q8 -8 15.5 -16t14.5 -16l2 2l11 11q9 5 16.5 3t7.5 -11l37 -38q6 -5 -1 -19l-14 -17h-1l-7 -7
q5 -11 10 -22.5t10 -21.5v-8.5t-8 -5.5l-36 -17l-42 -37l-12 9q-15 -23 -28.5 -47.5t-27.5 -54.5l-67 11q-4 2 -6 4l-36 35l-4 1q-8 3 -10 15q-28 6 -51 11.5t-46 14.5l-3 -13q-4 -15 -7 -30t-8 -35q-4 -8 -10.5 -8t-11.5 4l-37 37q-11 2 -11 12q2 17 2 29.5t-1 26.5v11
q-11 3 -20 9l-3 2zM219 295q-3 -21 -5 -39.5t-7 -41.5q40 -20 73.5 -36t53.5 -24q17 21 31 33.5t27 23.5l2 2l8 7l4 4q-3 11 -6.5 21t-7.5 20q-13 -12 -30 -24.5t-37 -23.5l-42 40h-1l-60 66l-2 -18q0 -2 -0.5 -2.5t-0.5 -1.5v-6zM232 501q0 -53 -2 -89t-6 -68
q31 22 49.5 36.5t29.5 25.5l-30 30l-11 8q0 3 5 14.5t7 12.5q13 -7 30 -15t29 -15l2 5v1q18 35 19 58v7h-9q-15 0 -33.5 -1t-35.5 -3z" />
    <glyph glyph-name="C" unicode="C" horiz-adv-x="548" 
d="M67 223q17 -9 38 -12.5t46 -2.5q1 0 1 2q-1 5 -1.5 11t-1.5 11q23 -30 57 -57q12 -11 28.5 -22t39 -22.5t52 -23.5t69.5 -24q3 0 3 1l53 83q3 3 -1 3q-48 -3 -91.5 6.5t-78.5 21.5q-34 12 -58 26.5t-46 35.5q-5 4 -12 11.5t-15 15.5q0 8 1 18t2 18q4 23 8.5 46t12.5 49
q8 24 18.5 51t24.5 53q8 14 19.5 30.5t24.5 30.5q35 -14 72 -33t87 -53q1 -1 3 1l7 12q11 17 20.5 29.5t23.5 25.5q1 1 0 3q-35 14 -58.5 22.5t-40 12.5t-28.5 5.5t-24 2.5h-8q-5 1 -10 1.5t-8 0.5q8 6 15.5 12t17.5 12q2 1 1 3t-3 1q-14 -8 -26 -14t-23 -13h-6
q-12 1 -22.5 1.5t-21.5 0.5q-41 0 -81 -6q-2 0 -2 -2t2 -2q39 1 90 -15q-27 -18 -42.5 -34.5t-26.5 -30.5q-19 -24 -36 -51t-31 -59q-5 -11 -8.5 -22.5t-7.5 -25.5q-11 15 -24.5 34.5t-27.5 39.5q-1 1 -2.5 0.5t-0.5 -2.5q11 -26 25 -53.5t24 -45.5q-4 -22 -7 -50.5
t-5 -65.5v-2zM54 225q2 34 5 63.5t7 49.5q-11 19 -24 45.5t-24 52.5q-2 4 1 7.5t8.5 5t10.5 1.5t8 -2l7 -11l30 -31l6 15q15 29 33.5 59t35.5 54q5 7 10 13.5t13 13.5l-31 32h-3q-2 0 -3 4.5t-1 9.5q-1 6 0 15q20 5 42 6t43 1h19.5t20.5 -1h6l15 9t22 11l11 5q1 0 2 -2.5
t3 -4.5l26 -26q10 -2 23 -5.5t29.5 -9.5t38.5 -14.5t51 -21.5l-2 -2l41 -41q-20 -20 -31 -34t-22 -31l-5 -8q-6 -5 -10.5 -8t-10.5 3l1 -2q-46 31 -82 50t-68 32q-11 -12 -22 -27t-17 -26h1q-14 -27 -24.5 -54t-18.5 -49h-1q-7 -23 -10.5 -46t-8.5 -48q-3 -12 -3 -25
q31 -25 83 -43q34 -12 76.5 -21.5t87.5 -5.5q7 0 10.5 -4t5.5 -8l37 -37q4 -8 1 -16l-53 -81q-2 -5 -5.5 -6t-6.5 -1q-41 13 -72 25t-54 24t-40 23t-30 22l-29 26l-10 9v-5q-32 0 -57.5 4t-42.5 14l-36 37q-6 1 -9 3zM412 491v-1v1zM203 188l-1 1q1 0 1 -1z" />
    <glyph glyph-name="A" unicode="A" horiz-adv-x="561" 
d="M261 533q0 -1 -0.5 -1.5t-0.5 -1.5v-1q-2 0 -2 4h3zM323 328q-32 -6 -71.5 -11.5t-71.5 -9.5q14 54 37 114.5t43 107.5q14 -41 31.5 -96t31.5 -105zM48 88q0 -2 2 -2l93 6q2 0 2 1q2 10 3.5 21t2.5 23q6 37 10.5 76.5t12.5 67.5q11 -1 25 -1.5t28 -0.5q26 0 56 1t55 2
q11 -48 20 -102.5t14 -101.5q0 -2 2 -2l86 44q1 0 1 2l-3 15q-3 12 -7 29.5t-8.5 37t-11 40t-13.5 38.5h22q5 0 11.5 0.5t12.5 0.5q2 0 2 1l33 70q3 3 -2 3q-25 -2 -52 -6.5t-54 -9.5q-5 13 -11 26t-11 25q-17 39 -41 88.5t-50 89.5q12 25 21.5 41.5t23.5 37.5q1 2 0 3
t-2 -1l-18 -19q-10 -9 -21 -19.5t-19 -20.5q-6 8 -12.5 14.5l-14.5 14.5q-4 4 -9.5 10t-13.5 18q-1 2 -2.5 1t-0.5 -2l6 -14q5 -11 12.5 -26t16.5 -39q-18 -25 -36.5 -56.5t-36.5 -66.5t-35 -71.5t-32 -70.5q-20 1 -38 3t-38 7q-2 0 -2 -1.5t1 -2.5q14 -7 32 -12.5t39 -9.5
q-7 -18 -13.5 -40.5t-12.5 -47.5t-11 -50t-10 -47zM39 106q2 7 4 15t3 15l3 16q5 26 11 52.5t13 50.5l-7 3l-2 3l-37 35l-4 3q-11 5 -6.5 16t15.5 11q18 -5 33.5 -6.5t31.5 -2.5q29 65 64 134t70 120q-8 18 -14.5 32t-11.5 22l-8 19q3 4 14 10q5 3 11 5l9 -14l33 -32v-1
l24 24l6 5l18 19q7 6 12.5 4.5t7.5 -6.5l40 -40q3 -2 4 -7.5t-2 -9.5q-14 -22 -22.5 -36.5t-19.5 -35.5q24 -38 46.5 -85t39.5 -85q20 3 38.5 5.5t39.5 4.5q12 0 14 -11l38 -38q6 -5 2 -13h1l-37 -77h-20h-19q13 -33 21 -67.5t13 -57.5l1 -9l4 -24l-92 -47h-1q-9 -2 -14 5
l-36 35q-5 2 -8 5.5t-4 6.5q-4 32 -9.5 71.5t-13.5 77.5q-17 -1 -34.5 -1h-31.5h-24t-21 1q-5 -20 -8.5 -44t-6.5 -50l-6 -39q-1 -8 -2 -16.5t-2 -14.5l-5 -24l-116 -3l-40 40h-7zM284 417q-8 -21 -16.5 -43.5t-14.5 -44.5q13 2 26.5 4t26.5 5l-2 12q-6 18 -10.5 34.5
t-9.5 32.5zM279 591q5 -5 8 -6z" />
  </font>
</defs>
</svg>
